[ Обновленные темы · Новые сообщения · Участники · Правила форума · Поиск · RSS ]
Форум » Test category » Test forum » Беседка (Флудилка)
Беседка
DruidblackДата: Воскресенье, 03.06.2018, 21:20 | Сообщение # 361
Рядовой
Группа: Аплоадеры
Сообщений: 15
Награды: 1
Репутация: 2
Статус: Offline
Cthulhu
Понятно. Значит будем проверять.
 
DruidblackДата: Воскресенье, 03.06.2018, 23:03 | Сообщение # 362
Рядовой
Группа: Аплоадеры
Сообщений: 15
Награды: 1
Репутация: 2
Статус: Offline
Опять возник вопрос.
Последние два обновления (Hybrid_2018.05.25.1_SETUP и Hybrid_2018.06.03.1_SETUP) отказываются работать. Сейчас обновился до Hybrid_2018.06.03.1_SETUP. ПОсле конвертирования звука выскакивает ошибка (годка все должно собираться). Откатился обратно до апрельской версии. И все работает.
 
DruidblackДата: Воскресенье, 03.06.2018, 23:05 | Сообщение # 363
Рядовой
Группа: Аплоадеры
Сообщений: 15
Награды: 1
Репутация: 2
Статус: Offline
Ошибка при конвертировании звука


Сообщение отредактировал Druidblack - Воскресенье, 03.06.2018, 23:07
 
DSIOДата: Понедельник, 04.06.2018, 05:22 | Сообщение # 364
Генерал-майор
Группа: Модераторы
Сообщений: 48
Награды: 3
Репутация: 4
Статус: Offline
Druidblack, ошибка по логу вроде как не со звуком, а с видео
'ERROR: T:\Temp\23_04_53_4410_04.265 was not created!'

Как вариант может быть вызвано использованием каких либо фильтров.
Советую написать на форуме selur.de, обычно селур отвечает в течении пары часов.
 
mvclubДата: Суббота, 16.06.2018, 19:19 | Сообщение # 365
Рядовой
Группа: Проверенные
Сообщений: 2
Награды: 0
Репутация: 0
Статус: Offline
Ребята, посоветуйте ТВ-приставку.
Критерии (остальные не имеют значения):
- поддержка HEVC/H.265 10-bit
- поддержка внешних HDD 2Tb
- минимальная цена


Сообщение отредактировал mvclub - Суббота, 16.06.2018, 19:20
 
ХиМиКДата: Четверг, 28.06.2018, 22:29 | Сообщение # 366
Генерал-лейтенант
Группа: Администраторы
Сообщений: 186
Награды: 8
Репутация: 9
Статус: Offline
mvclub, нашёл, что подарить?


 
Jackie1998Дата: Понедельник, 16.07.2018, 11:04 | Сообщение # 367
Рядовой
Группа: Пользователи
Сообщений: 2
Награды: 0
Репутация: 0
Статус: Offline
Доброго времени суток!!! Помогите, пожалуйста, раздайте этот фильм!!!

http://hevc-club.ucoz.net/load/inostranec_the_foreigner_2017_bdrip_1080p_hevc/1-1-0-1479
 
CthulhuДата: Понедельник, 16.07.2018, 11:10 | Сообщение # 368
Полковник
Группа: Аплоадеры
Сообщений: 34
Награды: 11
Репутация: 6
Статус: Offline
Jackie1998, напишите лучше в чате или(и) в личку автору релиза
 
Jackie1998Дата: Понедельник, 16.07.2018, 12:02 | Сообщение # 369
Рядовой
Группа: Пользователи
Сообщений: 2
Награды: 0
Репутация: 0
Статус: Offline
Кто-нибудь, помогите, пожалуйста скачать данный фильм!! Заранее спасибо!

http://hevc-club.ucoz.net/load/inostranec_the_foreigner_2017_bdrip_1080p_hevc/1-1-0-1479
 
ZarrrazAДата: Четверг, 19.07.2018, 22:28 | Сообщение # 370
Сержант
Группа: Друзья
Сообщений: 26
Награды: 0
Репутация: 0
Статус: Offline
Добрый вечер.
Кто-нибудь может подсказать откуда набегает такая разница в битрейде?

Video
ID                          : 1
Format                      : HEVC
Format/Info                 : High Efficiency Video Coding
Format profile              : Main 10@L4@Main
Codec ID                    : V_MPEGH/ISO/HEVC
Duration                    : 2 h 14 min
Bit rate                    : 6 356 kb/s
Width                       : 1 920 pixels
Height                      : 804 pixels
Display aspect ratio        : 2.40:1
Frame rate mode             : Constant
Frame rate                  : 23.976 (23976/1000) FPS
Color space                 : YUV
Chroma subsampling          : 4:2:0
Bit depth                   : 10 bits
Bits/(Pixel*Frame)          : 0.172
Stream size                 : 5.96 GiB (77%)
Writing library             : x265 2.7+15-b9f5b5d7bf95:[Windows][MSVC 1800][64 bit] 10bit
Encoding settings           : cpuid=1173503 / frame-threads=3 / numa-pools=8 / wpp / no-pmode / no-pme / no-psnr / no-ssim / log-level=2 / input-csp=1 / input-res=1920x804 / interlace=0 / total-frames=0 / level-idc=0 / high-tier=1 / uhd-bd=0 / ref=6 / no-allow-non-conformance / repeat-headers / annexb / no-aud / no-hrd / info / hash=0 / no-temporal-layers / no-open-gop / min-keyint=23 / keyint=250 / gop-lookahead=0 / bframes=8 / b-adapt=2 / b-pyramid / bframe-bias=0 / rc-lookahead=24 / lookahead-slices=5 / scenecut=40 / radl=0 / no-intra-refresh / ctu=64 / min-cu-size=8 / no-rect / no-amp / max-tu-size=32 / tu-inter-depth=1 / tu-intra-depth=1 / limit-tu=0 / rdoq-level=0 / dynamic-rd=0.00 / no-ssim-rd / signhide / no-tskip / nr-intra=0 / nr-inter=0 / no-constrained-intra / no-strong-intra-smoothing / max-merge=2 / limit-refs=3 / no-limit-modes / me=2 / subme=6 / merange=48 / temporal-mvp / weightp / weightb / no-analyze-src-pics / deblock=0:0 / sao / no-sao-non-deblock / rd=4 / no-early-skip / rskip / no-fast-intra / no-tskip-fast / no-cu-lossless / no-b-intra / no-splitrd-skip / rdpenalty=0 / psy-rd=2.00 / psy-rdoq=0.00 / no-rd-refine / no-lossless / cbqpoffs=0 / crqpoffs=0 / rc=crf / crf=17.0 / qcomp=0.60 / qpstep=4 / stats-write=0 / stats-read=0 / ipratio=1.40 / pbratio=1.30 / aq-mode=3 / aq-strength=1.00 / cutree / zone-count=0 / no-strict-cbr / qg-size=32 / no-rc-grain / qpmax=69 / qpmin=0 / no-const-vbv / sar=0 / overscan=0 / videoformat=5 / range=0 / colorprim=2 / transfer=2 / colormatrix=2 / chromaloc=0 / display-window=0 / max-cll=0,0 / min-luma=0 / max-luma=1023 / log2-max-poc-lsb=8 / vui-timing-info / vui-hrd-info / slices=1 / no-opt-qp-pps / no-opt-ref-list-length-pps / no-multi-pass-opt-rps / scenecut-bias=0.05 / no-opt-cu-delta-qp / aq-motion / no-hdr / no-hdr-opt / no-dhdr10-opt / no-idr-recovery-sei / analysis-reuse-level=5 / scale-factor=0 / refine-intra=0 / refine-inter=0 / refine-mv=0 / no-limit-sao / ctu-info=0 / no-lowpass-dct / refine-mv-type=0 / copy-pic=1 / max-ausize-factor=1.0 / no-dynamic-refine
Language                    : English
Default                     : Yes
Forced                      : No

Добавлено (19.07.2018, 22:33)
---------------------------------------------
Второй

Video
ID                          : 1
Format                      : HEVC
Format/Info                 : High Efficiency Video Coding
Format profile              : Main 10@L5.1 @High
Codec ID                    : V_MPEGH/ISO/HEVC
Duration                    : 2 h 14 min
Bit rate                    : 5 420 kb/s
Width                       : 1 920 pixels
Height                      : 804 pixels
Display aspect ratio        : 2.40:1
Frame rate mode             : Constant
Frame rate                  : 23.976 (24000/1001) FPS
Color space                 : YUV
Chroma subsampling          : 4:2:0
Bit depth                   : 10 bits
Bits/(Pixel*Frame)          : 0.146
Stream size                 : 5.08 GiB (93%)
Writing library             : x265 2.8+19-bcdc610cf5f0:[Windows][GCC 7.3.0][64 bit] 10bit
Encoding settings           : cpuid=1049583 / frame-threads=5 / numa-pools=4 / wpp / no-pmode / no-pme / no-psnr / no-ssim / log-level=3 / input-csp=1 / input-res=1920x804 / interlace=0 / total-frames=0 / level-idc=51 / high-tier=1 / uhd-bd=0 / ref=5 / allow-non-conformance / no-repeat-headers / annexb / no-aud / no-hrd / info / hash=0 / no-temporal-layers / open-gop / min-keyint=24 / keyint=240 / gop-lookahead=0 / bframes=3 / b-adapt=2 / b-pyramid / bframe-bias=0 / rc-lookahead=20 / lookahead-slices=5 / scenecut=40 / radl=0 / no-intra-refresh / ctu=64 / min-cu-size=8 / no-rect / no-amp / max-tu-size=32 / tu-inter-depth=1 / tu-intra-depth=1 / limit-tu=0 / rdoq-level=0 / dynamic-rd=0.00 / no-ssim-rd / signhide / no-tskip / nr-intra=0 / nr-inter=0 / no-constrained-intra / strong-intra-smoothing / max-merge=2 / limit-refs=3 / no-limit-modes / me=1 / subme=7 / merange=57 / temporal-mvp / weightp / no-weightb / no-analyze-src-pics / deblock=-4:-4 / sao / no-sao-non-deblock / rd=3 / no-early-skip / rskip / no-fast-intra / no-tskip-fast / no-cu-lossless / no-b-intra / no-splitrd-skip / rdpenalty=0 / psy-rd=2.00 / psy-rdoq=0.00 / no-rd-refine / no-lossless / cbqpoffs=0 / crqpoffs=0 / rc=crf / crf=17.0 / qcomp=0.60 / qpstep=4 / stats-write=0 / stats-read=0 / vbv-maxrate=160000 / vbv-bufsize=160000 / vbv-init=0.9 / crf-max=0.0 / crf-min=0.0 / ipratio=1.40 / pbratio=1.30 / aq-mode=1 / aq-strength=1.00 / cutree / zone-count=0 / no-strict-cbr / qg-size=32 / no-rc-grain / qpmax=69 / qpmin=0 / no-const-vbv / sar=1 / overscan=0 / videoformat=5 / range=0 / colorprim=1 / transfer=1 / colormatrix=1 / chromaloc=0 / display-window=0 / max-cll=0,0 / min-luma=0 / max-luma=1023 / log2-max-poc-lsb=8 / vui-timing-info / vui-hrd-info / slices=1 / no-opt-qp-pps / no-opt-ref-list-length-pps / no-multi-pass-opt-rps / scenecut-bias=0.05 / no-opt-cu-delta-qp / no-aq-motion / no-hdr / no-hdr-opt / no-dhdr10-opt / no-idr-recovery-sei / analysis-reuse-level=5 / scale-factor=0 / refine-intra=0 / refine-inter=0 / refine-mv=0 / no-limit-sao / ctu-info=0 / no-lowpass-dct / refine-mv-type=0 / copy-pic=1 / max-ausize-factor=1.0 / no-dynamic-refine / no-single-sei
Language                    : English
Default                     : Yes
Forced                      : No
Color range                 : Limited
Color primaries             : BT.709
Transfer characteristics    : BT.709
Matrix coefficients         : BT.709

Сообщение отредактировал ZarrrazA - Четверг, 19.07.2018, 22:32
 
CthulhuДата: Пятница, 20.07.2018, 08:32 | Сообщение # 371
Полковник
Группа: Аплоадеры
Сообщений: 34
Награды: 11
Репутация: 6
Статус: Offline
ZarrrazA, в первом варианте aq-mode=3 / aq-strength=1.00 /  aq-motion
Во втором aq-mode=1 / aq-strength=1.00 / no-aq-motion
 
ZarrrazAДата: Суббота, 21.07.2018, 09:29 | Сообщение # 372
Сержант
Группа: Друзья
Сообщений: 26
Награды: 0
Репутация: 0
Статус: Offline
Cthulhu, спасибо за пояснения.
 
artemsvdovinДата: Суббота, 21.07.2018, 18:42 | Сообщение # 373
Рядовой
Группа: Аплоадеры
Сообщений: 14
Награды: 0
Репутация: 0
Статус: Offline
как думаете, на предмет кодирования в режиме 24/7 нормально ли будет работать связка Intel Core i3-6100 / ASRock H110M-ITX / G.Skill Value 8GB DDR4 
думаю, запихнуть такое в миникорпус да закинуть на холодильник, айда только цепляйся по Radmin да ставь задания
ну не совсем же уж отстой?
 
DSIOДата: Суббота, 21.07.2018, 19:44 | Сообщение # 374
Генерал-майор
Группа: Модераторы
Сообщений: 48
Награды: 3
Репутация: 4
Статус: Offline
artemsvdovin, смотря на каких настройках, если на нормальных, то один фильм неделю где то наверное будет кодироваться.
 
artemsvdovinДата: Суббота, 21.07.2018, 19:46 | Сообщение # 375
Рядовой
Группа: Аплоадеры
Сообщений: 14
Награды: 0
Репутация: 0
Статус: Offline
грустно
 
Форум » Test category » Test forum » Беседка (Флудилка)
Поиск: