Главная » Файлы » Фильмы [HEVC]

Американский ниндзя 3: Кровавая охота / American Ninja 3: Blood Hunt (1989) BDRip 1080p [HEVC] 10bit
03.06.2018, 16:10
Американский ниндзя 3 Кровавая охота / American Ninja 3: Blood Hunt

Год: 1989
Страна(студия): США
Жанр: Боевик, драма
Продолжительность: 01:29:52
Перевод: Многоголосый закадровый, авторский

Режиссер: Седрик Сандстром
В ролях: Дэвид Брэдли, Стив Джеймс, Марджо Гортнер, Мишель Б. Чан, Иегуда Эфрони, Кэлвин Джанг, Эдриэнн Пирс, Ивэн Дж. Клиссер
Описание: Шон Дэвидсон, потерявший родителей и воспитанный учителем-японцем в традициях ниндзя, приезжает на международный турнир каратэ. Злоумышленники разрабатывают здесь в секретной лаборатории смертоносный вирус, чтобы испытать его на победителе чемпионата.
Качество: BDRip 1080p Формат: MKV
Видео: H.265 L5.1High 1920x1040 23,976 кадр/сек 9786 Кбит/сек 10bit
Аудио 1: AC-3 Русская
(Многоголосый)
2 канала(ов) 192 Кбит/сек 48,0 КГц
Аудио 2: AC-3 Русская
(Многоголосый)
2 канала(ов) 192 Кбит/сек 48,0 КГц
Аудио 3: QAAC Русская
(Немахов)
2 канала(ов) 198 Кбит/сек 48,0 КГц
MediaInfo

Общее

Уникальный идентификатор : 6472495714692585745720383938519231850 (0x4DE8EAD41AA427D51B65453F6F9ED6A)
Полное имя : W:\Downloads\Американский ниндзя - America Ninja\Американский ниндзя 3 Кровавая охота - American Ninja 3 Blood Hunt (1989)(1080p).mkv
Формат : Matroska
Версия формата : Version 4 / Version 2
Размер файла : 6,51 Гбайт
Продолжительность : 1 ч. 29 м.
Общий поток : 10,4 Мбит/сек
Дата кодирования : UTC 2018-06-02 03:25:25
Программа кодирования : mkvmerge v23.0.0 ('The Bride Said No') 64-bit
Библиотека кодирования : libebml v1.3.6 + libmatroska v1.4.9
Обложка : Yes
Attachments : cover.jpg
 

Видео

Идентификатор : 1
Формат : HEVC
Формат/Информация : High Efficiency Video Coding
Профиль формата : Main 10@L5.1@High
Идентификатор кодека : V_MPEGH/ISO/HEVC
Продолжительность : 1 ч. 29 м.
Битрейт : 9786 Кбит/сек
Ширина : 1920 пикселей
Высота : 1040 пикселей
Соотношение сторон : 1,85:1
Режим частоты кадров : Постоянный
Частота кадров : 23,976 (24000/1001) кадра/сек
Цветовое пространство : YUV
Субдискретизация насыщенности : 4:2:0
Битовая глубина : 10 бит
Бит/(Пиксели*Кадры) : 0.204
Размер потока : 6,14 Гбайт (94%)
Библиотека кодирования : x265 2.7+348-0968a46d6ba4:[Windows][MSVC 1914][64 bit] 10bit
Настройки программы : cpuid=1176575 / frame-threads=4 / numa-pools=16 / wpp / no-pmode / no-pme / no-psnr / no-ssim / log-level=2 / input-csp=1 / input-res=1920x1040 / interlace=0 / total-frames=129302 / level-idc=51 / high-tier=1 / uhd-bd=0 / ref=5 / no-allow-non-conformance / no-repeat-headers / annexb / no-aud / no-hrd / info / hash=0 / no-temporal-layers / open-gop / min-keyint=23 / keyint=250 / gop-lookahead=0 / bframes=8 / b-adapt=2 / no-b-pyramid / bframe-bias=0 / rc-lookahead=30 / lookahead-slices=4 / scenecut=40 / radl=0 / no-intra-refresh / ctu=64 / min-cu-size=8 / no-rect / no-amp / max-tu-size=32 / tu-inter-depth=2 / tu-intra-depth=2 / limit-tu=4 / rdoq-level=2 / dynamic-rd=0.00 / no-ssim-rd / signhide / no-tskip / nr-intra=0 / nr-inter=0 / no-constrained-intra / strong-intra-smoothing / max-merge=3 / limit-refs=2 / limit-modes / me=3 / subme=7 / merange=64 / temporal-mvp / weightp / weightb / no-analyze-src-pics / deblock=-3:-3 / no-sao / no-sao-non-deblock / rd=4 / no-early-skip / rskip / no-fast-intra / no-tskip-fast / no-cu-lossless / no-b-intra / no-splitrd-skip / rdpenalty=0 / psy-rd=2.00 / psy-rdoq=1.00 / no-rd-refine / no-lossless / cbqpoffs=0 / crqpoffs=0 / rc=crf / crf=20.0 / qcomp=0.60 / qpstep=4 / stats-write=0 / stats-read=0 / vbv-maxrate=50000 / vbv-bufsize=50000 / vbv-init=0.9 / crf-max=0.0 / crf-min=0.0 / ipratio=1.40 / pbratio=1.30 / aq-mode=1 / aq-strength=0.70 / cutree / zone-count=0 / no-strict-cbr / qg-size=32 / no-rc-grain / qpmax=69 / qpmin=0 / no-const-vbv / sar=1 / overscan=0 / videoformat=5 / range=0 / colorprim=2 / transfer=2 / colormatrix=2 / chromaloc=0 / display-window=0 / max-cll=0,0 / min-luma=0 / max-luma=1023 / log2-max-poc-lsb=8 / vui-timing-info / vui-hrd-info / slices=1 / no-opt-qp-pps / no-opt-ref-list-length-pps / no-multi-pass-opt-rps / scenecut-bias=0.05 / no-opt-cu-delta-qp / no-aq-motion / no-hdr / no-hdr-opt / no-dhdr10-opt / no-idr-recovery-sei / analysis-reuse-level=5 / scale-factor=0 / refine-intra=0 / refine-inter=0 / refine-mv=0 / no-limit-sao / ctu-info=0 / no-lowpass-dct / refine-mv-type=0 / copy-pic=1 / max-ausize-factor=1.0 / no-dynamic-refine / no-single-sei
Default : Да
Forced : Нет
 

Аудио #1

Идентификатор : 2
Формат : AC-3
Формат/Информация : Audio Coding 3
Идентификатор кодека : A_AC3
Продолжительность : 1 ч. 29 м.
Вид битрейта : Постоянный
Битрейт : 192 Кбит/сек
Каналы : 2 канала
Расположение каналов : Front: L R
Частота : 48,0 КГц
Частота кадров : 31,250 кадров/сек (1536 SPF)
Битовая глубина : 16 бит
Метод сжатия : С потерями
Размер потока : 123 Мбайт (2%)
Язык : Russian
ServiceKind/String : Complete Main
Default : Нет
Forced : Нет
 

Аудио #2

Идентификатор : 3
Формат : AC-3
Формат/Информация : Audio Coding 3
Идентификатор кодека : A_AC3
Продолжительность : 1 ч. 29 м.
Вид битрейта : Постоянный
Битрейт : 192 Кбит/сек
Каналы : 2 канала
Расположение каналов : Front: L R
Частота : 48,0 КГц
Частота кадров : 31,250 кадров/сек (1536 SPF)
Битовая глубина : 16 бит
Метод сжатия : С потерями
Размер потока : 123 Мбайт (2%)
Язык : Russian
ServiceKind/String : Complete Main
Default : Нет
Forced : Нет
 

Аудио #3

Идентификатор : 4
Формат : AAC
Формат/Информация : Advanced Audio Codec
Профиль формата : LC
Идентификатор кодека : A_AAC-2
Продолжительность : 1 ч. 29 м.
Битрейт : 198 Кбит/сек
Каналы : 2 канала
Расположение каналов : Front: L R
Частота : 48,0 КГц
Частота кадров : 46,875 кадров/сек (1024 SPF)
Метод сжатия : С потерями
Задержка видео : 20 мс.
Размер потока : 127 Мбайт (2%)
Default : Да
Forced : Нет
 
 
 
Размер: 6.51Гб
Категория: Фильмы [HEVC] | Добавил: DSIO
Просмотров: 147 | Загрузок: 53 | Рейтинг: 5.0/3
Всего комментариев: 0
avatar