Среда, 24.10.2018, 07:39
HEVC-CLUB
Меню сайта
Категории раздела
Фильмы [HEVC] [1233]
Мультфильмы [HEVC] [95]
Сериалы [HEVC] [64]
Аниме [HEVC] [5]
Документальный [HEVC] [0]
Концерты [HEVC] [45]
UHDRip [HEVC] [35]
Поиск
Мини-чат
Статистика
Онлайн всего: 7
Гостей: 3
Пользователей: 4
[ Полный Список ]

Банды Нью-Йорка / Gangs of New York (2002) BDRip 1080p [HEVC] 10bit
28.07.2018, 10:34
Банды Нью-Йорка / Gangs of New York

Год: 2002
Страна(студия): США, Италия
Жанр: Драма, криминал, история
Продолжительность: 02:46:35
Перевод: Дублированный

Режиссер: Мартин Скорсезе
В ролях: Леонардо Ди Каприо, Дэниэл Дэй-Льюис, Кэмерон Диаз, Джим Бродбент, Джон С. Рейли, Генри Томас, Лайам Нисон, Брендан Глисон, Гари Льюис, Стивен Грэхэм
Описание: Нью-Йорк, 1863 год. В диких трущобах города «американской мечты» действует только один закон — закон силы. Здесь идет в ход любое оружие, никто не считает потерь и не оплакивает погибших. В одной из жестоких стычек от рук вожака «коренных американцев» — Мясника Билла погибает предводитель банды «ирландцев» Вэллон. Его сын Амстердам надолго попадает в исправительную школу, затаив ненависть на Мясника, ставшего хозяином окрестных кварталов. Спустя годы не узнанный никем Амстердам возвратится на родные улицы с единственной целью — отомстить убийце отца…
Качество: BDRip 1080p Формат: MKV
Видео: H.265 L5.1High 1920x816 23,976 кадр/сек 5579 Кбит/сек 10bit
Аудио: QAAC Русская 6 канала(ов) 394 Кбит/сек 48,0 КГц
MediaInfo

Общее

Уникальный идентификатор : 332774763579668144928792809499280503094 (0xFA5A1693B6F2DC52BC66128F9BAB7136)
Полное имя : Z:\Downloads\Банды Нью-Йорка - Gangs of New York (2002)(1080p).mkv
Формат : Matroska
Версия формата : Version 4 / Version 2
Размер файла : 6,95 Гбайт
Продолжительность : 2 ч. 46 м.
Общий поток : 5975 Кбит/сек
Дата кодирования : UTC 2018-07-27 18:37:29
Программа кодирования : mkvmerge v25.0.0 ('Prog Noir') 64-bit
Библиотека кодирования : libebml v1.3.6 + libmatroska v1.4.9
Обложка : Yes
Attachments : cover.jpg
 

Видео

Идентификатор : 1
Формат : HEVC
Формат/Информация : High Efficiency Video Coding
Профиль формата : Main 10@L5.1@High
Идентификатор кодека : V_MPEGH/ISO/HEVC
Продолжительность : 2 ч. 46 м.
Битрейт : 5579 Кбит/сек
Ширина : 1920 пикселей
Высота : 816 пикселей
Соотношение сторон : 2,35:1
Режим частоты кадров : Постоянный
Частота кадров : 23,976 (24000/1001) кадра/сек
Цветовое пространство : YUV
Субдискретизация насыщенности : 4:2:0
Битовая глубина : 10 бит
Бит/(Пиксели*Кадры) : 0.149
Размер потока : 6,49 Гбайт (93%)
Библиотека кодирования : x265 2.8+23-656b5b442f0b:[Windows][GCC 7.3.0][64 bit] 10bit
Настройки программы : cpuid=1176575 / frame-threads=4 / numa-pools=16 / wpp / no-pmode / no-pme / no-psnr / no-ssim / log-level=2 / input-csp=1 / input-res=1920x816 / interlace=0 / total-frames=0 / level-idc=51 / high-tier=1 / uhd-bd=0 / ref=5 / no-allow-non-conformance / no-repeat-headers / annexb / no-aud / no-hrd / info / hash=0 / no-temporal-layers / open-gop / min-keyint=23 / keyint=250 / gop-lookahead=0 / bframes=8 / b-adapt=2 / no-b-pyramid / bframe-bias=0 / rc-lookahead=60 / lookahead-slices=4 / scenecut=40 / radl=0 / no-intra-refresh / ctu=64 / min-cu-size=8 / no-rect / no-amp / max-tu-size=32 / tu-inter-depth=2 / tu-intra-depth=2 / limit-tu=4 / rdoq-level=2 / dynamic-rd=0.00 / no-ssim-rd / signhide / no-tskip / nr-intra=0 / nr-inter=0 / no-constrained-intra / strong-intra-smoothing / max-merge=3 / limit-refs=2 / limit-modes / me=3 / subme=7 / merange=64 / temporal-mvp / weightp / weightb / no-analyze-src-pics / deblock=-3:-3 / no-sao / no-sao-non-deblock / rd=6 / no-early-skip / rskip / no-fast-intra / no-tskip-fast / no-cu-lossless / b-intra / no-splitrd-skip / rdpenalty=0 / psy-rd=2.00 / psy-rdoq=1.00 / no-rd-refine / no-lossless / cbqpoffs=0 / crqpoffs=0 / rc=crf / crf=18.0 / qcomp=0.60 / qpstep=4 / stats-write=0 / stats-read=0 / vbv-maxrate=160000 / vbv-bufsize=160000 / vbv-init=0.9 / crf-max=0.0 / crf-min=0.0 / ipratio=1.40 / pbratio=1.30 / aq-mode=1 / aq-strength=0.70 / cutree / zone-count=0 / no-strict-cbr / qg-size=32 / no-rc-grain / qpmax=69 / qpmin=0 / no-const-vbv / sar=0 / overscan=0 / videoformat=5 / range=0 / colorprim=2 / transfer=2 / colormatrix=1 / chromaloc=0 / display-window=0 / max-cll=0,0 / min-luma=0 / max-luma=1023 / log2-max-poc-lsb=8 / vui-timing-info / vui-hrd-info / slices=1 / no-opt-qp-pps / no-opt-ref-list-length-pps / no-multi-pass-opt-rps / scenecut-bias=0.05 / no-opt-cu-delta-qp / no-aq-motion / no-hdr / no-hdr-opt / no-dhdr10-opt / no-idr-recovery-sei / analysis-reuse-level=5 / scale-factor=0 / refine-intra=0 / refine-inter=0 / refine-mv=0 / no-limit-sao / ctu-info=0 / no-lowpass-dct / refine-mv-type=0 / copy-pic=1 / max-ausize-factor=1.0 / no-dynamic-refine / no-single-sei
Default : Да
Forced : Да
Цветовой диапазон : Limited
Коэффициенты матрицы : BT.709
 

Аудио

Идентификатор : 2
Формат : AAC
Формат/Информация : Advanced Audio Codec
Профиль формата : LC
Идентификатор кодека : A_AAC-2
Продолжительность : 2 ч. 46 м.
Битрейт : 394 Кбит/сек
Каналы : 6 каналов
Расположение каналов : Front: L C R, Side: L R, LFE
Частота : 48,0 КГц
Частота кадров : 46,875 кадров/сек (1024 SPF)
Метод сжатия : С потерями
Задержка видео : 20 мс.
Размер потока : 470 Мбайт (7%)
Язык : Russian
Default : Да
Forced : Нет
 
 
 
Размер: 6.95Гб
Категория: Фильмы [HEVC] | Добавил: DSIO
Просмотров: 623 | Загрузок: 220 | Комментарии: 11 | Рейтинг: 4.7/12
Всего комментариев: 11
avatar
0
1
Спасибо!
avatar
2
thumb
avatar
3
very nice picture thank you can you please also include english audio? thank you have a great day.
avatar
0
4
Sorry, but I already deleted the source
avatar
5
Браво!  
шикарный фильм, шикарная картинка
avatar
6
np thank you.
avatar
7
Супер! Только сам хотел этот фильм в hevc делать, а тут такой подарок!!!!!! respect СПАСИБО!
avatar
0
10
так сделай другой нам люди нужны которые могут делать фильмы в HEVC
avatar
0
8
Не жрут железные плеера qaac.От того и раздача будет мертва через некоторое время.
avatar
0
9
да DSIO M@kSIMus (Не жрут железные плеера qaac.От того и раздача будет мертва через некоторое время.) прав ты если не сложно кидай еще и AC3
avatar
11
Спасибо конечно, но в идеале лучше бы сделать такой же рип, но в дополнении с английской дорожкой. Так как многие, включая меня, любят слушать диалоги на языке оригинала. Если бы вы могли перезалить этот фильм с английской дорожкой было бы прекрасно, так как фильм - шедевр, однозначно.
avatar

Профиль
Среда
24.10.2018
07:39


Случайные Новости
Перейти к просмотру Коллекторы / The Debt Collector (2018) BDRip 1080p [HEVC] 10 bit
Перейти к просмотру Из Парижа с любовью / From Paris with Love (2009) BDRip 1080p [HEVC] 10 bit
Перейти к просмотру Робокоп 3 (1993) BDRip 1080p [HEVC] 10 bit
Перейти к просмотру Титаник / Titanic (1997) UHDRip 2160p [HEVC] 10 bit [HDR]
Перейти к просмотру Перл Харбор / Pearl Harbor (2001) BDRip 1080p [HEVC] 10 Bit
Перейти к просмотру Капитан / Le Capitan (Il Capitano del re)  (1960) [H.265/1080p-LQ] [10-bit]

Друзья сайта
      






Copyright MyCorp © 2018

uCoz