Пятница, 16.11.2018, 06:57
HEVC-CLUB
Профиль
Пятница
16.11.2018
06:57

Меню сайта
Категории раздела
Фильмы [HEVC] [1279]
Мультфильмы [HEVC] [97]
Сериалы [HEVC] [68]
Аниме [HEVC] [5]
Документальный [HEVC] [0]
Концерты [HEVC] [47]
UHDRip [HEVC] [45]
Статистика
Онлайн всего: 7
Гостей: 3
Пользователей: 4
[ Полный Список ]

Битлз: Жёлтая подводная лодка / The Beatles: Yellow Submarine (1968) BDRip 1080p [HEVC] 10bit - KORSAR
28.10.2018, 13:14
Битлз: Жёлтая подводная лодка / The Beatles: Yellow Submarine

1968 / Год
Великобритания, США / Страна(студия)
Анимационный музыкальный фильм, комедия, приключения / Жанр
01:29:41 / Продолжительность
Одноголосый закадровый, Субтитры / Перевод

Джордж Даннинг / Режиссер
The Beatles, Пол Анджелис, Джон Клайв, Дик Эмери, Джефри Хьюз, Лэнс Персивал, Питер Бэттен / В ролях
Описание: В чудесной красочной музыкальной стране под названием Пепперлэнд появились злобные Синие вреднючки. Они принялись замораживать всех направо и налево, а хуже всего было то, что они заморозили Оркестр Клуба Одиноких Сердец Сержанта Пеппера - главную музыкальную силу Пепперлэнда. Юный Фред забирается в Желтую Подводную Лодку и плывет на поиски Музыки, которая прогонит Синих вреднючек. Он встречает группу The Beatles, и они соглашаются плыть с Юным Фредом в Пепперлэнд, чтобы помочь жителям вновь обрести волшебство Музыки и победить Синих вреднючек...
Качество: BDRip 1080p Формат: MKV
Видео: H.265 L5.1High 1800x1080 23,976 кадр/сек 4374 Кбит/сек 10bit
Аудио 1: AC-3 Русская
DVD-Магия
6 канала(ов) 640 Кбит/сек 48,0 КГц
Аудио 2: AC-3 Русская
Максим Жолобов
6 канала(ов) 640 Кбит/сек 48,0 КГц
Аудио 3: AC-3 Русская
ОРТ
2 канала(ов) 224 Кбит/сек 48,0 КГц
Аудио 4: AC-3 Русская
Деваль-Видео
6 канала(ов) 448 Кбит/сек 48,0 КГц
Аудио 5: AC-3 Русская
Сергей Визгунов
6 канала(ов) 640 Кбит/сек 48,0 КГц
Аудио 7: AC-3 Русская
Андрей Гаврилов
1 канала(ов) 128 Кбит/сек 48,0 КГц
Аудио 8: AC-3 English 6 канала(ов) 640 Кбит/сек 48,0 КГц
MediaInfo
x265 [info]: frame I: 1029, Avg QP:14.66 kb/s: 24028.10
x265 [info]: frame P: 33733, Avg QP:17.22 kb/s: 10744.14
x265 [info]: frame B: 94263, Avg QP:20.30 kb/s: 1878.41
x265 [info]: consecutive B-frames: 14.9% 13.3% 12.2% 32.5% 10.2% 10.5% 2.9% 2.3% 1.1%

Общее

Уникальный идентификатор : 339377917102253579216972926534313638240 (0xFF51CF2E5B5CC33BF56D40C0C390F960)
Полное имя : F:\korsar\Жёлтая подводная лодка - The Beatles Yellow Submarine (1968)(1080p) KORSAR.mkv
Формат : Matroska
Версия формата : Version 4 / Version 2
Размер файла : 4,85 Гбайт
Продолжительность : 1 ч. 29 м.
Общий поток : 7736 Кбит/сек
Название фильма : The Beatles: Желтая подводная лодка - Yellow Submarine (Rip by DSIO)
Дата кодирования : UTC 2018-10-28 03:44:20
Программа кодирования : mkvmerge v28.2.0 ('The Awakening') 64-bit
Библиотека кодирования : libebml v1.3.6 + libmatroska v1.4.9
Обложка : Yes
Attachments : cover.jpg
Encoding Gui : Hybrid 2018.10.21.1
 

Видео

Идентификатор : 1
Формат : HEVC
Формат/Информация : High Efficiency Video Coding
Профиль формата : Main 10@L5.1@High
Идентификатор кодека : V_MPEGH/ISO/HEVC
Продолжительность : 1 ч. 29 м.
Битрейт : 4374 Кбит/сек
Ширина : 1800 пикселей
Высота : 1080 пикселей
Соотношение сторон : 5:3
Режим частоты кадров : Постоянный
Частота кадров : 23,976 (24000/1001) кадра/сек
Цветовое пространство : YUV
Субдискретизация насыщенности : 4:2:0
Битовая глубина : 10 бит
Бит/(Пиксели*Кадры) : 0.094
Размер потока : 2,74 Гбайт (57%)
Библиотека кодирования : x265 2.9+2-7e978ed93d60:[Windows][GCC 8.2.0][64 bit] 10bit
Настройки программы : cpuid=1176575 / frame-threads=4 / numa-pools=16 / wpp / no-pmode / no-pme / no-psnr / no-ssim / log-level=2 / input-csp=1 / input-res=1800x1080 / interlace=0 / total-frames=0 / level-idc=51 / high-tier=1 / uhd-bd=0 / ref=5 / no-allow-non-conformance / no-repeat-headers / annexb / no-aud / no-hrd / info / hash=0 / no-temporal-layers / open-gop / min-keyint=23 / keyint=250 / gop-lookahead=0 / bframes=8 / b-adapt=2 / b-pyramid / bframe-bias=0 / rc-lookahead=60 / lookahead-slices=4 / scenecut=40 / radl=0 / no-intra-refresh / ctu=64 / min-cu-size=8 / rect / amp / max-tu-size=32 / tu-inter-depth=2 / tu-intra-depth=2 / limit-tu=4 / rdoq-level=2 / dynamic-rd=0.00 / no-ssim-rd / signhide / no-tskip / nr-intra=0 / nr-inter=0 / no-constrained-intra / no-strong-intra-smoothing / max-merge=3 / limit-refs=2 / limit-modes / me=3 / subme=7 / merange=64 / temporal-mvp / weightp / weightb / no-analyze-src-pics / deblock=-2:-2 / sao / no-sao-non-deblock / rd=6 / no-early-skip / rskip / no-fast-intra / no-tskip-fast / no-cu-lossless / b-intra / no-splitrd-skip / rdpenalty=0 / psy-rd=2.00 / psy-rdoq=1.00 / no-rd-refine / no-lossless / cbqpoffs=0 / crqpoffs=0 / rc=crf / crf=18.0 / qcomp=0.70 / qpstep=4 / stats-write=0 / stats-read=0 / vbv-maxrate=160000 / vbv-bufsize=160000 / vbv-init=0.9 / crf-max=0.0 / crf-min=0.0 / ipratio=1.40 / pbratio=1.10 / aq-mode=1 / aq-strength=0.70 / cutree / zone-count=0 / no-strict-cbr / qg-size=32 / no-rc-grain / qpmax=69 / qpmin=0 / no-const-vbv / sar=0 / overscan=0 / videoformat=5 / range=0 / colorprim=2 / transfer=2 / colormatrix=1 / chromaloc=0 / display-window=0 / max-cll=0,0 / min-luma=0 / max-luma=1023 / log2-max-poc-lsb=8 / vui-timing-info / vui-hrd-info / slices=1 / no-opt-qp-pps / no-opt-ref-list-length-pps / no-multi-pass-opt-rps / scenecut-bias=0.05 / no-opt-cu-delta-qp / no-aq-motion / no-hdr / no-hdr-opt / no-dhdr10-opt / no-idr-recovery-sei / analysis-reuse-level=5 / scale-factor=0 / refine-intra=0 / refine-inter=0 / refine-mv=0 / no-limit-sao / ctu-info=0 / no-lowpass-dct / refine-mv-type=0 / copy-pic=1 / max-ausize-factor=1.0 / no-dynamic-refine / no-single-sei
Default : Да
Forced : Да
Цветовой диапазон : Limited
Коэффициенты матрицы : BT.709
 

Аудио #1

Идентификатор : 2
Формат : AC-3
Формат/Информация : Audio Coding 3
Идентификатор кодека : A_AC3
Продолжительность : 1 ч. 29 м.
Вид битрейта : Постоянный
Битрейт : 640 Кбит/сек
Каналы : 6 каналов
Расположение каналов : Front: L C R, Side: L R, LFE
Частота : 48,0 КГц
Частота кадров : 31,250 кадров/сек (1536 SPF)
Битовая глубина : 16 бит
Метод сжатия : С потерями
Размер потока : 410 Мбайт (8%)
Заголовок : Одноголосый закадровый | DVD-Магия
Язык : Russian
ServiceKind/String : Complete Main
Default : Да
Forced : Нет
 

Аудио #2

Идентификатор : 3
Формат : AC-3
Формат/Информация : Audio Coding 3
Идентификатор кодека : A_AC3
Продолжительность : 1 ч. 29 м.
Вид битрейта : Постоянный
Битрейт : 640 Кбит/сек
Каналы : 6 каналов
Расположение каналов : Front: L C R, Side: L R, LFE
Частота : 48,0 КГц
Частота кадров : 31,250 кадров/сек (1536 SPF)
Битовая глубина : 16 бит
Метод сжатия : С потерями
Размер потока : 410 Мбайт (8%)
Заголовок : Одноголосый закадровый | Максим Жолобов
Язык : Russian
ServiceKind/String : Complete Main
Default : Нет
Forced : Нет
 

Аудио #3

Идентификатор : 4
Формат : AC-3
Формат/Информация : Audio Coding 3
Идентификатор кодека : A_AC3
Продолжительность : 1 ч. 29 м.
Вид битрейта : Постоянный
Битрейт : 224 Кбит/сек
Каналы : 2 канала
Расположение каналов : Front: L R
Частота : 48,0 КГц
Частота кадров : 31,250 кадров/сек (1536 SPF)
Битовая глубина : 16 бит
Метод сжатия : С потерями
Размер потока : 144 Мбайт (3%)
Заголовок : Одноголосый закадровый | ОРТ
Язык : Russian
ServiceKind/String : Complete Main
Default : Нет
Forced : Нет
 

Аудио #4

Идентификатор : 5
Формат : AC-3
Формат/Информация : Audio Coding 3
Идентификатор кодека : A_AC3
Продолжительность : 1 ч. 29 м.
Вид битрейта : Постоянный
Битрейт : 448 Кбит/сек
Каналы : 6 каналов
Расположение каналов : Front: L C R, Side: L R, LFE
Частота : 48,0 КГц
Частота кадров : 31,250 кадров/сек (1536 SPF)
Битовая глубина : 16 бит
Метод сжатия : С потерями
Размер потока : 287 Мбайт (6%)
Заголовок : Одноголосый закадровый | Деваль-Видео
Язык : Russian
ServiceKind/String : Complete Main
Default : Нет
Forced : Нет
 

Аудио #5

Идентификатор : 6
Формат : AC-3
Формат/Информация : Audio Coding 3
Идентификатор кодека : A_AC3
Продолжительность : 1 ч. 29 м.
Вид битрейта : Постоянный
Битрейт : 640 Кбит/сек
Каналы : 6 каналов
Расположение каналов : Front: L C R, Side: L R, LFE
Частота : 48,0 КГц
Частота кадров : 31,250 кадров/сек (1536 SPF)
Битовая глубина : 16 бит
Метод сжатия : С потерями
Размер потока : 410 Мбайт (8%)
Заголовок : Одноголосый закадровый | Сергей Визгунов
Язык : Russian
ServiceKind/String : Complete Main
Default : Нет
Forced : Нет
 

Аудио #6

Идентификатор : 7
Формат : AC-3
Формат/Информация : Audio Coding 3
Идентификатор кодека : A_AC3
Продолжительность : 1 ч. 29 м.
Вид битрейта : Постоянный
Битрейт : 128 Кбит/сек
Каналы : 1 канал
Расположение каналов : Front: C
Частота : 48,0 КГц
Частота кадров : 31,250 кадров/сек (1536 SPF)
Битовая глубина : 16 бит
Метод сжатия : С потерями
Размер потока : 82,1 Мбайт (2%)
Заголовок : Одноголосый закадровый | Андрей Гаврилов
Язык : Russian
ServiceKind/String : Complete Main
Default : Нет
Forced : Нет
 

Аудио #7

Идентификатор : 8
Формат : AC-3
Формат/Информация : Audio Coding 3
Идентификатор кодека : A_AC3
Продолжительность : 1 ч. 29 м.
Вид битрейта : Постоянный
Битрейт : 640 Кбит/сек
Каналы : 6 каналов
Расположение каналов : Front: L C R, Side: L R, LFE
Частота : 48,0 КГц
Частота кадров : 31,250 кадров/сек (1536 SPF)
Битовая глубина : 16 бит
Метод сжатия : С потерями
Задержка видео : 1 с. 43 мс.
Размер потока : 410 Мбайт (8%)
Язык : English
ServiceKind/String : Complete Main
Default : Нет
Forced : Нет
 

Текст #1

Идентификатор : 9
Формат : UTF-8
Идентификатор кодека : S_TEXT/UTF8
Идентификатор кодека/Информация : UTF-8 Plain Text
Продолжительность : 1 ч. 21 м.
Битрейт : 20 бит/сек
ElementCount : 193
Размер потока : 12,5 Кбайт (0%)
Заголовок : Русский (Форсированные)
Язык : Russian
Default : Да
Forced : Нет
 

Текст #2

Идентификатор : 10
Формат : UTF-8
Идентификатор кодека : S_TEXT/UTF8
Идентификатор кодека/Информация : UTF-8 Plain Text
Продолжительность : 1 ч. 27 м.
Битрейт : 56 бит/сек
ElementCount : 606
Размер потока : 36,2 Кбайт (0%)
Заголовок : Русский
Default : Нет
Forced : Нет
 

Меню

00:00:00.000 : :01. Pepperland
00:01:40.648 : :02.The Meanies Attack
00:05:32.880 : :03. Lord Mayor's Quartet
00:07:33.000 : :04. Yellow Submarine
00:10:16.080 : :05. Eleanor Rigby
00:13:13.298 : :06. The Sub Stalks Ringo
00:16:03.719 : :07. Ringo's House
00:18:41.376 : :08. George Is Here!
00:20:54.968 : :09. Finding Paul
00:22:02.661 : :10. Blast Off!
00:22:46.746 : :11. All Together Now
00:25:32.078 : :12. Time For Time!
00:28:06.399 : :13. When I'm 64
00:31:00.865 : :14. Only A Northern Song
00:33:52.328 : :15. Sea Of Monsters
00:40:18.005 : :16. Who / What Is This?
00:42:55.579 : :17. Nowhere Man
00:46:23.870 : :18. P Is For Goodbye
00:47:42.365 : :19. Lucy In The Sky With Diamonds
00:51:11.700 : :20. Sea Of Holes
00:54:43.411 : :21. Help Has Arrived!
00:56:48.411 : :22. Hiding Among Meanies
01:01:48.586 : :23. The Band's Stash
01:03:14.422 : :24. A New Blue Day
01:04:46.680 : :25. Green Apple Bopping
01:06:08.929 : :26. Sgt. Pepper's Lonely Hearts Club Band
01:08:20.978 : :27. With A Little Help From My Friends
01:08:47.254 : :28. Who is Blue?
01:11:24.411 : :29. All You Need Is Love
01:14:41.066 : :30. Alter Ego Band
01:16:57.577 : :31. Hey Bulldog
01:20:29.706 : :32. Rescuing Jeremy
01:21:21.966 : :33. Blooming Blue
01:24:18.017 : :34. It's All Too Much
01:26:52.130 : :35. All Together Now (reprise)
01:28:40.238 : :36. End Credits
f5c63585bb0ea164a9b690c5288f121f.png
 
c95cfb051e2c4b4d757f2aefd4b96cb0.png
 
b682db344faf25f22328f8c38152aa9f.png
 
03775dff1b2528cb68c8272ae91c7944.png
Размер: 4.84Гб
Категория: Фильмы [HEVC] | Добавил: DSIO
Просмотров: 124 | Загрузок: 19 | Комментарии: 4 | Рейтинг: 0.0/0
Всего комментариев: 4
avatar
1 bonamur • 13:39, 28.10.2018
Ого, вот за это вообще огромное спасибо. 
Стенку бы ещё в реставрации, только вот на блюрике что-то нигде нету...
avatar
avatar
avatar
4 bonamur • 23:33, 28.10.2018
ух. спасибо!!!!
avatar

Поиск

Случайные раздачи
Перейти к просмотру История игрушек: Большой побег / Toy Story 3 (2010) BDRip 1080p [HEVC] 10 bit
Перейти к просмотру Губка Боб в 3D / The SpongeBob Movie - Sponge Out of Water (2015) BDRip 1080p [HEVC] 10 bit
Перейти к просмотру Трансформеры 3: Темная сторона Луны / Transformers: Dark of the Moon (2011) BDRip 1080p [HEVC] 10Bit
Перейти к просмотру Путешествие к Центру Земли / Journey to the Center of the Earth (2008) BDRip 1080p [HEVC] 10Bit
Перейти к просмотру Час расплаты / Paycheck (2003) BDRip 1080p [HEVC] 10bit
Перейти к просмотру Люси / Lucy (2014) BDRip 1080p [HEVC] 10bit

Друзья сайта
      






Copyright MyCorp © 2018

uCoz