Главная » Файлы » Фильмы [HEVC]

Честь дракона / Tom yum goong (2005) BDRip 1080p [HEVC] 10bit
12.07.2018, 15:08
Честь дракона / Tom yum goong

Год: 2005
Страна(студия): Таиланд
Жанр: Боевик, драма, боевые искусства
Продолжительность: 01:50:33
Перевод: Одноголосый закадровый

Режиссер: Прачья Пинкаю
В ролях: Тони Джаа, Петчтай Вонгкамлао, Бонгкодж Кхонгмалай, Хин Джин, Натан Джонс, Джонни Нгуйен, Латиф Кроудер, Джон Фу, Дэмиан Де Монтема, Дэвид Асаванонд
Описание: Кхам, с детских лет рос с мыслью о том, что когда-нибудь он, как и его предки сможет стать одним из воинов Джубаты, охраны королевского слона. В воспитании и становлении его, как будущего воина принимал участие не только любящий отец, но и слон по имени По Яи со своим малышом Коном. Однако во время новогодней праздничной проверки, слонов коварно похищают и продают в Сидней. И тогда, ослеплённый горем потери, Кхам отправляется на его поиски, сокрушая и уничтожая всех врагов, которые становятся на его пути...
Качество: BDRip 1080p Формат: MKV
Видео: H.265 L5.1High 1920x1080 23,976 кадр/сек 8213 Кбит/сек 10bit
Аудио: AC-3 Русская 6 канала(ов) 448 Кбит/сек 48,0 КГц
MediaInfo

Общее

Уникальный идентификатор : 197472685975224959692918651123585830930 (0x948FDB1D09964266334D1FA39188D012)
Полное имя : Z:\Downloads\Честь дракона - Tom yum goong (2005)(1080p).mkv
Формат : Matroska
Версия формата : Version 4 / Version 2
Размер файла : 6,69 Гбайт
Продолжительность : 1 ч. 50 м.
Общий поток : 8663 Кбит/сек
Дата кодирования : UTC 2018-07-08 17:21:13
Программа кодирования : mkvmerge v23.0.0 ('The Bride Said No') 64-bit
Библиотека кодирования : libebml v1.3.6 + libmatroska v1.4.9
Обложка : Yes
Attachments : cover.jpg
Encoding Gui : Hybrid 2018.06.23.1
 

Видео

Идентификатор : 1
Формат : HEVC
Формат/Информация : High Efficiency Video Coding
Профиль формата : Main 10@L5.1@High
Идентификатор кодека : V_MPEGH/ISO/HEVC
Продолжительность : 1 ч. 50 м.
Битрейт : 8213 Кбит/сек
Ширина : 1920 пикселей
Высота : 1080 пикселей
Соотношение сторон : 16:9
Режим частоты кадров : Постоянный
Частота кадров : 23,976 (24000/1001) кадра/сек
Цветовое пространство : YUV
Субдискретизация насыщенности : 4:2:0
Битовая глубина : 10 бит
Бит/(Пиксели*Кадры) : 0.165
Размер потока : 6,34 Гбайт (95%)
Библиотека кодирования : x265 2.8+23-656b5b442f0b:[Windows][GCC 7.3.0][64 bit] 10bit
Настройки программы : cpuid=1176575 / frame-threads=4 / numa-pools=16 / wpp / no-pmode / no-pme / no-psnr / no-ssim / log-level=2 / input-csp=1 / input-res=1920x1080 / interlace=0 / total-frames=0 / level-idc=51 / high-tier=1 / uhd-bd=0 / ref=5 / no-allow-non-conformance / no-repeat-headers / annexb / no-aud / no-hrd / info / hash=0 / no-temporal-layers / open-gop / min-keyint=23 / keyint=250 / gop-lookahead=0 / bframes=8 / b-adapt=2 / no-b-pyramid / bframe-bias=0 / rc-lookahead=40 / lookahead-slices=4 / scenecut=40 / radl=0 / no-intra-refresh / ctu=64 / min-cu-size=8 / no-rect / no-amp / max-tu-size=32 / tu-inter-depth=2 / tu-intra-depth=2 / limit-tu=4 / rdoq-level=2 / dynamic-rd=0.00 / no-ssim-rd / signhide / no-tskip / nr-intra=0 / nr-inter=0 / no-constrained-intra / strong-intra-smoothing / max-merge=3 / limit-refs=2 / limit-modes / me=3 / subme=7 / merange=64 / temporal-mvp / weightp / weightb / no-analyze-src-pics / deblock=-1:-1 / no-sao / no-sao-non-deblock / rd=6 / no-early-skip / rskip / no-fast-intra / no-tskip-fast / no-cu-lossless / b-intra / no-splitrd-skip / rdpenalty=0 / psy-rd=2.00 / psy-rdoq=1.00 / no-rd-refine / no-lossless / cbqpoffs=0 / crqpoffs=0 / rc=crf / crf=18.0 / qcomp=0.60 / qpstep=4 / stats-write=0 / stats-read=0 / vbv-maxrate=160000 / vbv-bufsize=160000 / vbv-init=0.9 / crf-max=0.0 / crf-min=0.0 / ipratio=1.10 / pbratio=1.10 / aq-mode=1 / aq-strength=0.70 / cutree / zone-count=0 / no-strict-cbr / qg-size=32 / no-rc-grain / qpmax=69 / qpmin=0 / no-const-vbv / sar=0 / overscan=0 / videoformat=5 / range=0 / colorprim=2 / transfer=2 / colormatrix=1 / chromaloc=0 / display-window=0 / max-cll=0,0 / min-luma=0 / max-luma=1023 / log2-max-poc-lsb=8 / vui-timing-info / vui-hrd-info / slices=1 / no-opt-qp-pps / no-opt-ref-list-length-pps / no-multi-pass-opt-rps / scenecut-bias=0.05 / no-opt-cu-delta-qp / no-aq-motion / no-hdr / no-hdr-opt / no-dhdr10-opt / no-idr-recovery-sei / analysis-reuse-level=5 / scale-factor=0 / refine-intra=0 / refine-inter=0 / refine-mv=0 / no-limit-sao / ctu-info=0 / no-lowpass-dct / refine-mv-type=0 / copy-pic=1 / max-ausize-factor=1.0 / no-dynamic-refine / no-single-sei
Default : Да
Forced : Да
Цветовой диапазон : Limited
Коэффициенты матрицы : BT.709
 

Аудио

Идентификатор : 2
Формат : AC-3
Формат/Информация : Audio Coding 3
Идентификатор кодека : A_AC3
Продолжительность : 1 ч. 50 м.
Вид битрейта : Постоянный
Битрейт : 448 Кбит/сек
Каналы : 6 каналов
Расположение каналов : Front: L C R, Side: L R, LFE
Частота : 48,0 КГц
Частота кадров : 31,250 кадров/сек (1536 SPF)
Битовая глубина : 16 бит
Метод сжатия : С потерями
Размер потока : 354 Мбайт (5%)
ServiceKind/String : Complete Main
Default : Да
Forced : Нет
 
 
 
Размер: 6.68Гб
Категория: Фильмы [HEVC] | Добавил: DSIO
Просмотров: 175 | Загрузок: 73 | Комментарии: 2 | Рейтинг: 5.0/2
Всего комментариев: 2
avatar
1
Кто нибудь смотрел? Как фильм?
avatar
0
2
Не знаю, учитывается ли моё мнение, как мнение релизера. Но я смотрел три или четыре раза, дико вкатил, даже больше чем Онг-Бак.
avatar