Главная » Файлы » Фильмы [HEVC]

Детройт - город рока / Detroit Rock City (1999) BDRip 1080p [HEVC] 10bit
20.06.2018, 04:08
Детройт - город рока / Detroit Rock City

Год: 1999
Страна(студия): США
Жанр: Комедия, приключения, музыка
Продолжительность: 01:34:37
Перевод: Многоголосый закадровый

Режиссер: Адам Рифкин
В ролях: Джузеппе Эндрюс, Джеймс ДеБелло, Эдвард Ферлонг, Сэм Хантингтон, Лин Шэй, Мелани Лински, Наташа Лионн, Майлз Дагал, Ник Скотти, Эммануэль Шрики, Шеннон Твид
Описание: 70-е. История рассказывает о четверых друзьях, фанатеющих от группы KISS. Во всем подражая своим кумирам, они даже создали собственную группу Mystery. И вот KISS приезжают с концертом к ним в Детройт! Конечно, друзья просто обязаны присутствовать на этом шоу! У них есть билеты, они уже в предвкушении концерта. И казалось бы, что может быть лучше? Но тут мать одного из них находит у сына билеты и… сжигает их дотла… Парни в ярости и отчаянии! Они любой ценой должны попасть на концерт к своим кумирам.
Качество: BDRip 1080p Формат: MKV
Видео: H.265 L5.1High 1920x800 23,976 кадр/сек 6564 Кбит/сек 10bit
Аудио: AC-3 Русская 6 канала(ов) 448 Кбит/сек 48,0 КГц
MediaInfo

Общее

Уникальный идентификатор : 273593534724827959971216086844621439775 (0xCDD432B773473D6997021E42BAF7C31F)
Полное имя : Z:\Downloads\Детройт город рока - Detroit Rock City (1999)(1080p).mkv
Формат : Matroska
Версия формата : Version 4 / Version 2
Размер файла : 4,64 Гбайт
Продолжительность : 1 ч. 34 м.
Общий поток : 7013 Кбит/сек
Название фильма : Detroit.Rock.City.1999.BDRemux.1080p-ylnian
Дата кодирования : UTC 2018-07-01 03:04:34
Программа кодирования : mkvmerge v23.0.0 ('The Bride Said No') 64-bit
Библиотека кодирования : libebml v1.3.6 + libmatroska v1.4.9
Обложка : Yes
Attachments : cover.jpg
Encoding Gui : Hybrid 2018.06.04.1

Видео

Идентификатор : 1
Формат : HEVC
Формат/Информация : High Efficiency Video Coding
Профиль формата : Main 10@L5.1@High
Идентификатор кодека : V_MPEGH/ISO/HEVC
Продолжительность : 1 ч. 34 м.
Битрейт : 6564 Кбит/сек
Ширина : 1920 пикселей
Высота : 800 пикселей
Соотношение сторон : 2,40:1
Режим частоты кадров : Постоянный
Частота кадров : 23,976 (24000/1001) кадра/сек
Цветовое пространство : YUV
Субдискретизация насыщенности : 4:2:0
Битовая глубина : 10 бит
Бит/(Пиксели*Кадры) : 0.178
Размер потока : 4,34 Гбайт (94%)
Библиотека кодирования : x265 2.8+23-656b5b442f0b:[Windows][GCC 7.3.0][64 bit] 10bit
Настройки программы : cpuid=1176575 / frame-threads=4 / numa-pools=16 / wpp / no-pmode / no-pme / no-psnr / no-ssim / log-level=2 / input-csp=1 / input-res=1920x800 / interlace=0 / total-frames=0 / level-idc=51 / high-tier=1 / uhd-bd=0 / ref=5 / no-allow-non-conformance / no-repeat-headers / annexb / no-aud / no-hrd / info / hash=0 / no-temporal-layers / open-gop / min-keyint=23 / keyint=250 / gop-lookahead=0 / bframes=8 / b-adapt=2 / no-b-pyramid / bframe-bias=0 / rc-lookahead=40 / lookahead-slices=4 / scenecut=40 / radl=0 / no-intra-refresh / ctu=64 / min-cu-size=8 / no-rect / no-amp / max-tu-size=32 / tu-inter-depth=2 / tu-intra-depth=2 / limit-tu=4 / rdoq-level=2 / dynamic-rd=0.00 / no-ssim-rd / signhide / no-tskip / nr-intra=0 / nr-inter=0 / no-constrained-intra / strong-intra-smoothing / max-merge=3 / limit-refs=2 / limit-modes / me=3 / subme=7 / merange=64 / temporal-mvp / weightp / weightb / no-analyze-src-pics / deblock=0:0 / no-sao / no-sao-non-deblock / rd=6 / no-early-skip / rskip / no-fast-intra / no-tskip-fast / no-cu-lossless / b-intra / no-splitrd-skip / rdpenalty=0 / psy-rd=2.00 / psy-rdoq=1.00 / no-rd-refine / no-lossless / cbqpoffs=0 / crqpoffs=0 / rc=crf / crf=18.0 / qcomp=0.60 / qpstep=4 / stats-write=0 / stats-read=0 / vbv-maxrate=160000 / vbv-bufsize=160000 / vbv-init=0.9 / crf-max=0.0 / crf-min=0.0 / ipratio=1.10 / pbratio=1.10 / aq-mode=1 / aq-strength=0.70 / cutree / zone-count=0 / no-strict-cbr / qg-size=32 / no-rc-grain / qpmax=69 / qpmin=0 / no-const-vbv / sar=0 / overscan=0 / videoformat=5 / range=0 / colorprim=1 / transfer=1 / colormatrix=1 / chromaloc=0 / display-window=0 / max-cll=0,0 / min-luma=0 / max-luma=1023 / log2-max-poc-lsb=8 / vui-timing-info / vui-hrd-info / slices=1 / no-opt-qp-pps / no-opt-ref-list-length-pps / no-multi-pass-opt-rps / scenecut-bias=0.05 / no-opt-cu-delta-qp / no-aq-motion / no-hdr / no-hdr-opt / no-dhdr10-opt / no-idr-recovery-sei / analysis-reuse-level=5 / scale-factor=0 / refine-intra=0 / refine-inter=0 / refine-mv=0 / no-limit-sao / ctu-info=0 / no-lowpass-dct / refine-mv-type=0 / copy-pic=1 / max-ausize-factor=1.0 / no-dynamic-refine / no-single-sei
Default : Да
Forced : Да
Цветовой диапазон : Limited
Основные цвета : BT.709
Характеристики трансфера : BT.709
Коэффициенты матрицы : BT.709

Аудио

Идентификатор : 2
Формат : AC-3
Формат/Информация : Audio Coding 3
Идентификатор кодека : A_AC3
Продолжительность : 1 ч. 34 м.
Вид битрейта : Постоянный
Битрейт : 448 Кбит/сек
Каналы : 6 каналов
Расположение каналов : Front: L C R, Side: L R, LFE
Частота : 48,0 КГц
Частота кадров : 31,250 кадров/сек (1536 SPF)
Битовая глубина : 16 бит
Метод сжатия : С потерями
Размер потока : 303 Мбайт (6%)
Заголовок : MVO (AC3 5.1 448 kbps)
Язык : Russian
ServiceKind/String : Complete Main
Default : Да
Forced : Нет
 
 
 
Размер: 4.63Гб
Категория: Фильмы [HEVC] | Добавил: DSIO
Просмотров: 205 | Загрузок: 48 | Комментарии: 6 | Рейтинг: 4.2/5
Всего комментариев: 6
avatar
1
Спасибо!
avatar
0
2
Торрент перезалит 01.07.2018

avatar
3
Еще  раз спасибо!
А когда будет раздача?
avatar
0
4
Да вроде стою на раздаче
avatar
5
У меня:
сиды - 0(0), пиры 1(5)
avatar
6
Заново скачал торрент. Не идет
avatar