Среда, 24.10.2018, 08:51
HEVC-CLUB
Меню сайта
Категории раздела
Фильмы [HEVC] [1233]
Мультфильмы [HEVC] [95]
Сериалы [HEVC] [64]
Аниме [HEVC] [5]
Документальный [HEVC] [0]
Концерты [HEVC] [45]
UHDRip [HEVC] [35]
Поиск
Мини-чат
Статистика
Онлайн всего: 8
Гостей: 4
Пользователей: 4
[ Полный Список ]

Хозяин подземной тюрьмы / The Dungeonmaster (1984) BDRip 1080p LQ [HEVC] 10bit
28.07.2018, 10:17
Хозяин подземной тюрьмы / The Dungeonmaster

Год: 1984
Страна(студия): США
Жанр: Фантастика, ужасы, фэнтези
Продолжительность: 01:18:03
Перевод: Многоголосый закадровый

Режиссер: Дэвид Аллен, Чарльз Бэнд
В ролях: Джеффри Байрон, Лесли Уинг, Ричард Молл, Фил Фондакаро, Энтони Т. Джинова III
Описание: Программист Пол Брэдфорд и его девушка Гвен попадают в потусторонний мир, где правит бал демонический колдун Местима, считающий Пола единственным достойным его противником. Чтобы выжить и спасти подругу, Пол вынужден скитаться по различным мирам, сражаясь с самыми невероятными существами, наделенными сверхъестественной силой и жестокостью…
Качество: BDRip 1080p Формат: MKV
Видео: H.265 L5.1High 1920x1080 23,976 кадр/сек 4468 Кбит/сек 10bit
Аудио: AC-3 Русская 2 канала(ов) 192 Кбит/сек 48,0 КГц
MediaInfo

Общее

Уникальный идентификатор : 334295346179090601507428922285672402823 (0xFB7EF1165E3E9A76DB775601546C8F87)
Полное имя : Z:\Downloads\Хозяин подземной тюрьмы - The Dungeonmaster (1984)(1080p).mkv
Формат : Matroska
Версия формата : Version 4 / Version 2
Размер файла : 2,54 Гбайт
Продолжительность : 1 ч. 18 м.
Общий поток : 4661 Кбит/сек
Название фильма : Dungeonmaster
Дата кодирования : UTC 2018-07-26 16:49:30
Программа кодирования : mkvmerge v25.0.0 ('Prog Noir') 64-bit
Библиотека кодирования : libebml v1.3.6 + libmatroska v1.4.9
Обложка : Yes
Attachments : cover.jpg
 

Видео

Идентификатор : 2
Формат : HEVC
Формат/Информация : High Efficiency Video Coding
Профиль формата : Main 10@L5.1@High
Идентификатор кодека : V_MPEGH/ISO/HEVC
Продолжительность : 1 ч. 18 м.
Битрейт : 4468 Кбит/сек
Ширина : 1920 пикселей
Высота : 1080 пикселей
Соотношение сторон : 16:9
Режим частоты кадров : Постоянный
Частота кадров : 23,976 (24000/1001) кадра/сек
Цветовое пространство : YUV
Субдискретизация насыщенности : 4:2:0
Битовая глубина : 10 бит
Бит/(Пиксели*Кадры) : 0.090
Размер потока : 2,44 Гбайт (96%)
Библиотека кодирования : x265 2.8+23-656b5b442f0b:[Windows][GCC 7.3.0][64 bit] 10bit
Настройки программы : cpuid=1176575 / frame-threads=4 / numa-pools=16 / wpp / no-pmode / no-pme / no-psnr / no-ssim / log-level=2 / input-csp=1 / input-res=1920x1080 / interlace=0 / total-frames=0 / level-idc=51 / high-tier=1 / uhd-bd=0 / ref=5 / no-allow-non-conformance / no-repeat-headers / annexb / no-aud / no-hrd / info / hash=0 / no-temporal-layers / open-gop / min-keyint=23 / keyint=250 / gop-lookahead=0 / bframes=8 / b-adapt=2 / no-b-pyramid / bframe-bias=0 / rc-lookahead=120 / lookahead-slices=4 / scenecut=40 / radl=0 / no-intra-refresh / ctu=64 / min-cu-size=8 / no-rect / no-amp / max-tu-size=32 / tu-inter-depth=2 / tu-intra-depth=2 / limit-tu=4 / rdoq-level=2 / dynamic-rd=0.00 / no-ssim-rd / signhide / no-tskip / nr-intra=0 / nr-inter=0 / no-constrained-intra / strong-intra-smoothing / max-merge=3 / limit-refs=2 / limit-modes / me=3 / subme=7 / merange=64 / temporal-mvp / weightp / weightb / no-analyze-src-pics / deblock=-3:-3 / no-sao / no-sao-non-deblock / rd=6 / no-early-skip / rskip / no-fast-intra / no-tskip-fast / no-cu-lossless / b-intra / no-splitrd-skip / rdpenalty=0 / psy-rd=2.00 / psy-rdoq=1.00 / no-rd-refine / no-lossless / cbqpoffs=0 / crqpoffs=0 / rc=crf / crf=20.0 / qcomp=0.60 / qpstep=4 / stats-write=0 / stats-read=0 / vbv-maxrate=160000 / vbv-bufsize=160000 / vbv-init=0.9 / crf-max=0.0 / crf-min=0.0 / ipratio=1.40 / pbratio=1.30 / aq-mode=1 / aq-strength=0.70 / cutree / zone-count=0 / no-strict-cbr / qg-size=32 / no-rc-grain / qpmax=69 / qpmin=0 / no-const-vbv / sar=0 / overscan=0 / videoformat=5 / range=0 / colorprim=2 / transfer=2 / colormatrix=1 / chromaloc=0 / display-window=0 / max-cll=0,0 / min-luma=0 / max-luma=1023 / log2-max-poc-lsb=8 / vui-timing-info / vui-hrd-info / slices=1 / no-opt-qp-pps / no-opt-ref-list-length-pps / no-multi-pass-opt-rps / scenecut-bias=0.05 / no-opt-cu-delta-qp / no-aq-motion / no-hdr / no-hdr-opt / no-dhdr10-opt / no-idr-recovery-sei / analysis-reuse-level=5 / scale-factor=0 / refine-intra=0 / refine-inter=0 / refine-mv=0 / no-limit-sao / ctu-info=0 / no-lowpass-dct / refine-mv-type=0 / copy-pic=1 / max-ausize-factor=1.0 / no-dynamic-refine / no-single-sei
Default : Да
Forced : Да
Цветовой диапазон : Limited
Коэффициенты матрицы : BT.709
 

Аудио

Идентификатор : 1
Формат : AC-3
Формат/Информация : Audio Coding 3
Идентификатор кодека : A_AC3
Продолжительность : 1 ч. 18 м.
Вид битрейта : Постоянный
Битрейт : 192 Кбит/сек
Каналы : 2 канала
Расположение каналов : Front: L R
Частота : 48,0 КГц
Частота кадров : 31,250 кадров/сек (1536 SPF)
Битовая глубина : 16 бит
Метод сжатия : С потерями
Размер потока : 107 Мбайт (4%)
Заголовок : MVO AC3 2.0 192 kbps
Язык : Russian
ServiceKind/String : Complete Main
Default : Нет
Forced : Нет
 
 
 
Размер: 2.54Гб
Категория: Фильмы [HEVC] | Добавил: DSIO
Просмотров: 382 | Загрузок: 53 | Комментарии: 1 | Рейтинг: 5.0/4
Всего комментариев: 1
avatar
0
1
v
avatar

Профиль
Среда
24.10.2018
08:51


Случайные Новости
Перейти к просмотру Перл Харбор / Pearl Harbor (2001) BDRip 1080p [HEVC] 10 Bit
Перейти к просмотру Морской бой / Battleship (2012) Blu-Ray (2160p)
Перейти к просмотру Троя / Troy (2004) BDRip 1080p [HEVC] 10bit
Перейти к просмотру Бэтмен (1989) BDRip 1080р [HEVC] 10bit
Перейти к просмотру Человек-муравей и Оса (2018) BDRip 1080p [HEVC] 10 bit
Перейти к просмотру Судный день (2008) [Unrated Cut] BDRip 1080p [HEVC] 10 bit

Друзья сайта
      






Copyright MyCorp © 2018

uCoz