Amorphis - Forging The Land Of Thousand Lakes (2009) BDRip 1080p [HEVC] 10bit

Обложка Amorphis - Forging The Land Of Thousand Lakes (2009) BDRip 1080p [HEVC] 10bit
Amorphis - Forging The Land Of Thousand Lakes

Год: 2009
Жанр: Progressive Metal, Folk Metal
Продолжительность: 01:35:52
Описание: Запись выступления в Оулу (Финляндия) выпущанная на DVD/BluRay к 20 летию группы.
Треклист:

1. Silver Bride
2. Sampo
3. Towards And Against
4. The Castaway
5. Smithereens / The Smoke
6. Majestic Beast
7. Alone
8. Silent Waters
9. Divinity
10. Elegy Medley (Against Widows / Cares / On Rich And Poor)
11. From The Heaven Of My Heart
12. Sky Is Mine
13. Magic And Mayhem / Black Winter Day
14. Sign From The Northside
15. House Of Sleep
16. My Kantele
Качество: BDRip 1080p Формат: MKV
Видео: H.265 L5.1High 1920x1080 24 кадр/сек 7109 Кбит/сек 10bit
Аудио 1: QAAC English 6 канала(ов) 791 Кбит/сек 48,0 КГц
Аудио 2: QAAC English 2 канала(ов) 337 Кбит/сек 48,0 КГц
MediaInfo

Общее

Уникальный идентификатор : 303984790257741239971731704196606230342 (0xE4B1574D0EEA09D29D3B0C773C0C7F46)
Полное имя : Z:\Downloads\Amorphis\Amorphis - Forging The Land Of Thousand Lakes (2009)(1080p).mkv
Формат : Matroska
Версия формата : Version 4 / Version 2
Размер файла : 5,52 Гбайт
Продолжительность : 1 ч. 35 м.
Общий поток : 8242 Кбит/сек
Дата кодирования : UTC 2018-05-13 14:10:22
Программа кодирования : mkvmerge v23.0.0 ('The Bride Said No') 64-bit
Библиотека кодирования : libebml v1.3.6 + libmatroska v1.4.9
Обложка : Yes
Attachments : cover.jpg
Encoding Gui : Hybrid 2018.04.08.1
 

Видео

Идентификатор : 1
Формат : HEVC
Формат/Информация : High Efficiency Video Coding
Профиль формата : Main 10@L5.1@High
Идентификатор кодека : V_MPEGH/ISO/HEVC
Продолжительность : 1 ч. 35 м.
Битрейт : 7109 Кбит/сек
Ширина : 1920 пикселей
Высота : 1080 пикселей
Соотношение сторон : 16:9
Режим частоты кадров : Постоянный
Частота кадров : 24,000 кадра/сек
Цветовое пространство : YUV
Субдискретизация насыщенности : 4:2:0
Битовая глубина : 10 бит
Бит/(Пиксели*Кадры) : 0.143
Размер потока : 4,76 Гбайт (86%)
Библиотека кодирования : x265 2.7+25-e1ed4d609b52:[Windows][GCC 7.3.0][64 bit] 10bit
Настройки программы : cpuid=1173503 / frame-threads=4 / numa-pools=16 / wpp / no-pmode / no-pme / no-psnr / no-ssim / log-level=2 / input-csp=1 / input-res=1920x1080 / interlace=0 / total-frames=0 / level-idc=51 / high-tier=1 / uhd-bd=0 / ref=5 / no-allow-non-conformance / no-repeat-headers / annexb / no-aud / no-hrd / info / hash=0 / no-temporal-layers / open-gop / min-keyint=24 / keyint=240 / gop-lookahead=0 / bframes=8 / b-adapt=2 / no-b-pyramid / bframe-bias=0 / rc-lookahead=40 / lookahead-slices=4 / scenecut=40 / radl=0 / no-intra-refresh / ctu=64 / min-cu-size=8 / no-rect / no-amp / max-tu-size=32 / tu-inter-depth=4 / tu-intra-depth=4 / limit-tu=1 / rdoq-level=2 / dynamic-rd=0.00 / no-ssim-rd / signhide / no-tskip / nr-intra=0 / nr-inter=0 / no-constrained-intra / no-strong-intra-smoothing / max-merge=3 / limit-refs=3 / limit-modes / me=3 / subme=6 / merange=64 / temporal-mvp / weightp / weightb / no-analyze-src-pics / no-deblock / sao / no-sao-non-deblock / rd=3 / no-early-skip / no-rskip / no-fast-intra / no-tskip-fast / no-cu-lossless / no-b-intra / no-splitrd-skip / rdpenalty=0 / psy-rd=2.00 / psy-rdoq=1.00 / no-rd-refine / no-lossless / cbqpoffs=0 / crqpoffs=0 / rc=crf / crf=22.0 / qcomp=0.60 / qpstep=4 / stats-write=0 / stats-read=0 / vbv-maxrate=50000 / vbv-bufsize=50000 / vbv-init=0.9 / crf-max=0.0 / crf-min=0.0 / ipratio=1.40 / pbratio=1.30 / aq-mode=1 / aq-strength=1.00 / cutree / zone-count=0 / no-strict-cbr / qg-size=32 / no-rc-grain / qpmax=69 / qpmin=16 / no-const-vbv / sar=1 / overscan=0 / videoformat=5 / range=0 / colorprim=1 / transfer=1 / colormatrix=1 / chromaloc=0 / display-window=0 / max-cll=0,0 / min-luma=0 / max-luma=1023 / log2-max-poc-lsb=8 / vui-timing-info / vui-hrd-info / slices=1 / opt-qp-pps / opt-ref-list-length-pps / no-multi-pass-opt-rps / scenecut-bias=0.05 / no-opt-cu-delta-qp / no-aq-motion / no-hdr / no-hdr-opt / no-dhdr10-opt / no-idr-recovery-sei / analysis-reuse-level=5 / scale-factor=0 / refine-intra=0 / refine-inter=0 / refine-mv=0 / no-limit-sao / ctu-info=0 / no-lowpass-dct / refine-mv-type=0 / copy-pic=1 / max-ausize-factor=1.0 / no-dynamic-refine / no-single-sei
Default : Да
Forced : Да
Цветовой диапазон : Limited
Основные цвета : BT.709
Характеристики трансфера : BT.709
Коэффициенты матрицы : BT.709
 

Аудио #1

Идентификатор : 2
Формат : AAC
Формат/Информация : Advanced Audio Codec
Профиль формата : LC
Идентификатор кодека : A_AAC-2
Продолжительность : 1 ч. 35 м.
Битрейт : 791 Кбит/сек
Каналы : 6 каналов
Расположение каналов : Front: L C R, Side: L R, LFE
Частота : 48,0 КГц
Частота кадров : 46,875 кадров/сек (1024 SPF)
Метод сжатия : С потерями
Задержка видео : 20 мс.
Размер потока : 543 Мбайт (10%)
Default : Да
Forced : Нет
 

Аудио #2

Идентификатор : 3
Формат : AAC
Формат/Информация : Advanced Audio Codec
Профиль формата : LC
Идентификатор кодека : A_AAC-2
Продолжительность : 1 ч. 35 м.
Битрейт : 337 Кбит/сек
Каналы : 2 канала
Расположение каналов : Front: L R
Частота : 48,0 КГц
Частота кадров : 46,875 кадров/сек (1024 SPF)
Метод сжатия : С потерями
Задержка видео : 20 мс.
Размер потока : 231 Мбайт (4%)
Default : Нет
Forced : Нет
 
 
 
Размер: 5.51Гб



14 Май 2018  15:06
14
59
315

Добавление нового комментария


Введите два слова, показанных на изображении: *
Аватар Cthulhu
  Cthulhu  14 Май 2018  18:35
Отлично, музон попер!  thumb
ЛС
Аватар Dimasik_mat
  Dimasik_mat  14 Май 2018  21:16
Круто.С возвращением.(al be back) tongue
ЛС
Аватар Evilshik
  Evilshik  17 Май 2018  08:08
Благодарю! Концерт реально классный. Но очень прошу, не делайте концерты со звуком AAC! Это же жутко звучит даже на недорогой акустике! Оставляйте оригинальный DD хотя бы. Заранее надеюсь на понимание.
ЛС
Аватар Siren_Head
  Siren_Head  17 Май 2018  08:32
Целиком и полностью поддерживаю. Хотя бы AC3.
ЛС
Аватар DSIO
  DSIO  17 Май 2018  18:36
AC3 при его максимальных 640кбит будет лучше чем qAAC на 960кбит? (в данном случае 791 потому как был использован переменный битрейт и кодек сам выбирал сколько ему требуется).
ЛС
Аватар DSIO
  DSIO  17 Май 2018  19:31
Первая же ссылка в гугле на запрос AAC vs AC3 мне выдала:

In a conclusion, AAC is a more advanced lossy audio format comparing with AC3. It will produce better
audio quality than AC3 with the same bitrate, especially on low
bitrates. The main advantage of using AC3 is for backward compatibility
on older Dolby Digital equipments.

Как нибудь надо будет собственное исследование на эту тему вообщем сделать.
ЛС
Аватар DSIO
  DSIO  18 Май 2018  17:44
А вот на русскоязычном по кодированию звука мнение нашел:

ЛС
Аватар DSIO
  DSIO  17 Май 2018  18:34
Там изначально не было DD, был LPCM с битрейтом 1536кбит и 4608кбит, DD такие битрейты в принципе не поддерживает. Оставлять такие жирные дороги не по мне.
AAC это на данный момент самый качественный аудиокодек в плане качество/размер, а QAAC качественней чем простой AAC на 25%. Причем были использованы максимальные доступные битрейты при пережатии.

Может мне слон на ухо наступил, но на creative sound blaster z + edifier 2700 звучит не особо хуже оригинала.
ЛС
Аватар Evilshik
  Evilshik  19 Май 2018  07:50
Поверь, колонки Canton ergo 620 + Pioner VSX-520 говорят что ААС - это ужас, а не качество.
Можешь скинуть оригинальную дорожку на какой-нить ресурс? Я пришью к этому видео. Заранее благодарю!
ЛС
Аватар DSIO
  DSIO  19 Май 2018  12:13
Оригиналов не осталось, если только исходник качать
https://rutracker.org/forum/viewtopic.php?t=4913869
В комментах правда и оригинальный звук не очень хвалят
ЛС
Аватар ХиМиК
  ХиМиК  19 Май 2018  14:10
Так это смысл маркетинга. Дорогая аппаратура-значит должна звучать "качественно". Но как это реализовать? А давайте сделаем так, чтобы "естественно" звучал только лосслес и будем впаривать -видите только на нашей акустике и усилке "видно" разницу между мр3 и flac.
ЛС
Аватар DSIO
  DSIO  19 Май 2018  21:07
Да там просто исходник дорожки не очень крутой, концертная запись ведь.
А человек видимо не осознает что битрейт 4500кбит/с не делает из плохой концертной записи студийную. Хотя конечно я могу ошибаться и перегон LPCM 4500 в qAAC 800 действительно ухудшил качество.

Но учитывая что человек верит в то что DD AC3 звучит лучше склоняет меня всё же к первому варианту.
ЛС
Аватар Evilshik
  Evilshik  20 Май 2018  07:17
Я давно скачивал Underworld с AAC. А потом скачал дорожку DD. Это небо и Земля!
ЛС
Аватар DSIO
  DSIO  20 Май 2018  08:07
Это про раздачу Химика с AAC 192кбит?
Так то да, логично, если AC-3 640кбит победил по качеству AAC 192кбит, то и qAAC 791кбит победит несомненно.
ЛС