Главная » Файлы » Фильмы [HEVC]

Месть ниндзя / Revenge of the Ninja (1983) BDRip 1080p [HEVC] 10bit
02.06.2018, 16:10
Месть ниндзя / Revenge of the Ninja

Год: 1983
Страна(студия): США
Жанр: Боевик, драма
Продолжительность: 01:30:03
Перевод: Многоголосый закадровый, авторский

Режиссер: Сэм Фёрстенберг
В ролях: Сё Косуги, Кит Витали, Вёрджил Фрай, Артур Робертс, Марио Галло, Грэйс Осита, Эшли Ферраре, Кейн Косуги, Джон Ла Мотта, Мэл Хэмптон, профессор Тору Танака
Описание: Мастер искуства ниндзютцу Чо по прозвищу Черный ниндзя вместе с сыном переезжает в США и начинает новую жизнь на чужбине, после того как в Японии группа ниндзя убивает почти всех членов его семьи. Чо открывает магазин игрушек, не подозревая, что его нечистый на руку партнер провозит контрабандой героин, набивая им кукол. Осознание того, что партнер и друг предал его, становится последней каплей в чаше терпения Черного ниндзя.
Качество: BDRip 1080p Формат: MKV
Видео: H.265 L5.1High 1920x1040 23,976 кадр/сек 5740 Кбит/сек 10bit
Аудио 1: AC-3 Русская
(Многоголосый)
2 канала(ов) 192 Кбит/сек 48,0 КГц
Аудио 2: AC-3 Русская
(Гаврилов)
2 канала(ов) 192 Кбит/сек 48,0 КГц
Аудио 3: AC-3 Русская
(Володарский)
2 канала(ов) 192 Кбит/сек 48,0 КГц
Аудио 4: AC-3 Русская
(Михалёв)
2 канала(ов) 192 Кбит/сек 48,0 КГц
MediaInfo

Общее

Уникальный идентификатор : 309119882056938452899306227929526789269 (0xE88E52DFB33204981CD347F9006B6495)
Полное имя : Z:\Downloads\Ниндзя - Ninja\Месть ниндзя - Revenge of the Ninja (1983)(1080p).mkv
Формат : Matroska
Версия формата : Version 4 / Version 2
Размер файла : 4,09 Гбайт
Продолжительность : 1 ч. 30 м.
Общий поток : 6509 Кбит/сек
Дата кодирования : UTC 2018-05-29 10:08:37
Программа кодирования : mkvmerge v23.0.0 ('The Bride Said No') 64-bit
Библиотека кодирования : libebml v1.3.6 + libmatroska v1.4.9
Обложка : Yes
Attachments : cover.jpg
Encoding Gui : Hybrid 2018.05.27.1
 

Видео

Идентификатор : 5
Формат : HEVC
Формат/Информация : High Efficiency Video Coding
Профиль формата : Main 10@L5.1@High
Идентификатор кодека : V_MPEGH/ISO/HEVC
Продолжительность : 1 ч. 30 м.
Битрейт : 5760 Кбит/сек
Ширина : 1920 пикселей
Высота : 1040 пикселей
Соотношение сторон : 1,85:1
Режим частоты кадров : Постоянный
Частота кадров : 23,976 (24000/1001) кадра/сек
Цветовое пространство : YUV
Субдискретизация насыщенности : 4:2:0
Битовая глубина : 10 бит
Бит/(Пиксели*Кадры) : 0.120
Размер потока : 3,62 Гбайт (88%)
Библиотека кодирования : x265 2.7+348-0968a46d6ba4:[Windows][MSVC 1914][64 bit] 10bit
Настройки программы : cpuid=1111039 / frame-threads=4 / numa-pools=16 / wpp / no-pmode / no-pme / no-psnr / no-ssim / log-level=2 / input-csp=1 / input-res=1920x1040 / interlace=0 / total-frames=129563 / level-idc=51 / high-tier=1 / uhd-bd=0 / ref=5 / no-allow-non-conformance / no-repeat-headers / annexb / no-aud / no-hrd / info / hash=0 / no-temporal-layers / open-gop / min-keyint=23 / keyint=250 / gop-lookahead=0 / bframes=8 / b-adapt=2 / no-b-pyramid / bframe-bias=0 / rc-lookahead=40 / lookahead-slices=0 / scenecut=40 / radl=0 / no-intra-refresh / ctu=64 / min-cu-size=8 / no-rect / no-amp / max-tu-size=32 / tu-inter-depth=4 / tu-intra-depth=4 / limit-tu=0 / rdoq-level=2 / dynamic-rd=0.00 / no-ssim-rd / signhide / tskip / nr-intra=0 / nr-inter=0 / no-constrained-intra / strong-intra-smoothing / max-merge=3 / limit-refs=0 / no-limit-modes / me=3 / subme=6 / merange=64 / temporal-mvp / weightp / weightb / no-analyze-src-pics / deblock=0:0 / no-sao / no-sao-non-deblock / rd=4 / no-early-skip / no-rskip / no-fast-intra / no-tskip-fast / no-cu-lossless / b-intra / no-splitrd-skip / rdpenalty=0 / psy-rd=2.00 / psy-rdoq=2.00 / no-rd-refine / no-lossless / cbqpoffs=0 / crqpoffs=0 / rc=crf / crf=20.0 / qcomp=0.60 / qpstep=4 / stats-write=0 / stats-read=0 / vbv-maxrate=160000 / vbv-bufsize=160000 / vbv-init=0.9 / crf-max=0.0 / crf-min=0.0 / ipratio=1.40 / pbratio=1.30 / aq-mode=1 / aq-strength=0.70 / cutree / zone-count=0 / no-strict-cbr / qg-size=32 / no-rc-grain / qpmax=69 / qpmin=0 / no-const-vbv / sar=1 / overscan=0 / videoformat=5 / range=0 / colorprim=2 / transfer=2 / colormatrix=2 / chromaloc=0 / display-window=0 / max-cll=0,0 / min-luma=0 / max-luma=1023 / log2-max-poc-lsb=8 / vui-timing-info / vui-hrd-info / slices=1 / no-opt-qp-pps / no-opt-ref-list-length-pps / no-multi-pass-opt-rps / scenecut-bias=0.05 / no-opt-cu-delta-qp / no-aq-motion / no-hdr / no-hdr-opt / no-dhdr10-opt / no-idr-recovery-sei / analysis-reuse-level=5 / scale-factor=0 / refine-intra=0 / refine-inter=0 / refine-mv=0 / no-limit-sao / ctu-info=0 / no-lowpass-dct / refine-mv-type=0 / copy-pic=1 / max-ausize-factor=1.0 / no-dynamic-refine / no-single-sei
Default : Да
Forced : Нет
 

Аудио #1

Идентификатор : 1
Формат : AC-3
Формат/Информация : Audio Coding 3
Идентификатор кодека : A_AC3
Продолжительность : 1 ч. 30 м.
Вид битрейта : Постоянный
Битрейт : 192 Кбит/сек
Каналы : 2 канала
Расположение каналов : Front: L R
Частота : 48,0 КГц
Частота кадров : 31,250 кадров/сек (1536 SPF)
Битовая глубина : 16 бит
Метод сжатия : С потерями
Размер потока : 124 Мбайт (3%)
Заголовок : ТВ3
Язык : Russian
ServiceKind/String : Complete Main
Default : Да
Forced : Нет
 

Аудио #2

Идентификатор : 2
Формат : AC-3
Формат/Информация : Audio Coding 3
Идентификатор кодека : A_AC3
Продолжительность : 1 ч. 30 м.
Вид битрейта : Постоянный
Битрейт : 192 Кбит/сек
Каналы : 2 канала
Расположение каналов : Front: L R
Частота : 48,0 КГц
Частота кадров : 31,250 кадров/сек (1536 SPF)
Битовая глубина : 16 бит
Метод сжатия : С потерями
Размер потока : 124 Мбайт (3%)
Заголовок : Андрей Гаврилов
Язык : Russian
ServiceKind/String : Complete Main
Default : Нет
Forced : Нет
 

Аудио #3

Идентификатор : 3
Формат : AC-3
Формат/Информация : Audio Coding 3
Идентификатор кодека : A_AC3
Продолжительность : 1 ч. 30 м.
Вид битрейта : Постоянный
Битрейт : 192 Кбит/сек
Каналы : 2 канала
Расположение каналов : Front: L R
Частота : 48,0 КГц
Частота кадров : 31,250 кадров/сек (1536 SPF)
Битовая глубина : 16 бит
Метод сжатия : С потерями
Размер потока : 124 Мбайт (3%)
Заголовок : Леонид Володарский
Язык : Russian
ServiceKind/String : Complete Main
Default : Нет
Forced : Нет
 

Аудио #4

Идентификатор : 4
Формат : AAC
Формат/Информация : Advanced Audio Codec
Профиль формата : LC
Идентификатор кодека : A_AAC-2
Продолжительность : 1 ч. 30 м.
Битрейт : 170 Кбит/сек
Каналы : 2 канала
Расположение каналов : Front: L R
Частота : 48,0 КГц
Частота кадров : 46,875 кадров/сек (1024 SPF)
Метод сжатия : С потерями
Задержка видео : 20 мс.
Размер потока : 109 Мбайт (3%)
Заголовок : Алексей Михалев
Язык : Russian
Default : Нет
Forced : Нет
 
 
 
Размер: 4.09Гб
Категория: Фильмы [HEVC] | Добавил: DSIO
Просмотров: 196 | Загрузок: 64 | Комментарии: 2 | Рейтинг: 5.0/2
Всего комментариев: 2
avatar
1
up
avatar
0
2
Ну его к сожалению в таком качестве не бывает
avatar