Главная » Файлы » Мультфильмы [HEVC]

Битлз: Жёлтая подводная лодка / The Beatles: Yellow Submarine (1968) BDRip 1080p [HEVC] 10bit
28.05.2018, 04:46
Битлз: Жёлтая подводная лодка / The Beatles: Yellow Submarine

Год: 1968
Страна(студия): США, Великобритания
Жанр: Анимационный музыкальный фильм, комедия, приключения
Продолжительность: 01:29:41
Перевод: Одноголосый закадровый
Субтитры: Русские (на песнях)

Режиссер: Джордж Даннинг
В ролях: The Beatles, Пол Анджелис, Джон Клайв
Описание: В чудесной красочной музыкальной стране под названием Пепперлэнд появились злобные Синие вреднючки. Они принялись замораживать всех направо и налево, а хуже всего было то, что они заморозили Оркестр Клуба Одиноких Сердец Сержанта Пеппера - главную музыкальную силу Пепперлэнда. Юный Фред забирается в Желтую Подводную Лодку и плывет на поиски Музыки, которая прогонит Синих вреднючек. Он встречает группу The Beatles, и они соглашаются плыть с Юным Фредом в Пепперлэнд, чтобы помочь жителям вновь обрести волшебство Музыки и победить Синих вреднючек...
Качество: BDRip 1080p Формат: MKV
Видео: H.265 L5.1High 1800x1080 23,976 кадр/сек 1355 Кбит/сек 10bit
Аудио: QAAC Русская 6 канала(ов) 790 Кбит/сек 48,0 КГц
MediaInfo

Общее

Уникальный идентификатор : 20966272152034680574359573361817229902 (0xFC5F506DD0988699F92CC1313071A4E)
Полное имя : Z:\Downloads\Жёлтая подводная лодка - The Beatles Yellow Submarine (1968)(1080p).mkv
Формат : Matroska
Версия формата : Version 4 / Version 2
Размер файла : 1,97 Гбайт
Продолжительность : 1 ч. 29 м.
Общий поток : 3147 Кбит/сек
Название фильма : The Beatles. Yellow Submarine (1968)
Дата кодирования : UTC 2018-05-26 20:44:24
Программа кодирования : mkvmerge v23.0.0 ('The Bride Said No') 64-bit
Библиотека кодирования : libebml v1.3.6 + libmatroska v1.4.9
Обложка : Yes
Attachments : cover.jpg / the-beatles-yellow-submarine-cover-maxi-poster-1.11.jpg
 

Видео

Идентификатор : 1
Формат : HEVC
Формат/Информация : High Efficiency Video Coding
Профиль формата : Main 10@L5.1@High
Идентификатор кодека : V_MPEGH/ISO/HEVC
Продолжительность : 1 ч. 29 м.
Битрейт : 2355 Кбит/сек
Ширина : 1800 пикселей
Высота : 1080 пикселей
Соотношение сторон : 5:3
Режим частоты кадров : Постоянный
Частота кадров : 23,976 (24000/1001) кадра/сек
Цветовое пространство : YUV
Субдискретизация насыщенности : 4:2:0
Битовая глубина : 10 бит
Бит/(Пиксели*Кадры) : 0.051
Размер потока : 1,48 Гбайт (75%)
Библиотека кодирования : x265 2.8+1-478bfe2b7673:[Windows][GCC 7.3.0][64 bit] 10bit
Настройки программы : cpuid=1176575 / frame-threads=4 / numa-pools=16 / wpp / no-pmode / no-pme / no-psnr / no-ssim / log-level=2 / input-csp=1 / input-res=1800x1080 / interlace=0 / total-frames=0 / level-idc=51 / high-tier=1 / uhd-bd=0 / ref=5 / no-allow-non-conformance / no-repeat-headers / annexb / no-aud / no-hrd / info / hash=0 / no-temporal-layers / open-gop / min-keyint=23 / keyint=240 / gop-lookahead=0 / bframes=8 / b-adapt=2 / no-b-pyramid / bframe-bias=0 / rc-lookahead=40 / lookahead-slices=5 / scenecut=40 / radl=0 / no-intra-refresh / ctu=64 / min-cu-size=8 / no-rect / no-amp / max-tu-size=32 / tu-inter-depth=4 / tu-intra-depth=4 / limit-tu=1 / rdoq-level=2 / dynamic-rd=0.00 / no-ssim-rd / signhide / no-tskip / nr-intra=0 / nr-inter=0 / no-constrained-intra / no-strong-intra-smoothing / max-merge=3 / limit-refs=3 / limit-modes / me=3 / subme=6 / merange=64 / temporal-mvp / weightp / weightb / no-analyze-src-pics / deblock=3:3 / sao / no-sao-non-deblock / rd=3 / no-early-skip / rskip / no-fast-intra / no-tskip-fast / no-cu-lossless / no-b-intra / no-splitrd-skip / rdpenalty=0 / psy-rd=0.00 / psy-rdoq=0.00 / no-rd-refine / no-lossless / cbqpoffs=0 / crqpoffs=0 / rc=crf / crf=20.0 / qcomp=0.60 / qpstep=4 / stats-write=0 / stats-read=0 / vbv-maxrate=160000 / vbv-bufsize=160000 / vbv-init=0.9 / crf-max=0.0 / crf-min=0.0 / ipratio=1.40 / pbratio=1.30 / aq-mode=1 / aq-strength=0.70 / cutree / zone-count=0 / no-strict-cbr / qg-size=32 / no-rc-grain / qpmax=69 / qpmin=0 / no-const-vbv / sar=0 / overscan=0 / videoformat=5 / range=0 / colorprim=1 / transfer=1 / colormatrix=1 / chromaloc=0 / display-window=0 / max-cll=0,0 / min-luma=0 / max-luma=1023 / log2-max-poc-lsb=8 / vui-timing-info / vui-hrd-info / slices=1 / opt-qp-pps / opt-ref-list-length-pps / no-multi-pass-opt-rps / scenecut-bias=0.05 / no-opt-cu-delta-qp / no-aq-motion / no-hdr / no-hdr-opt / no-dhdr10-opt / no-idr-recovery-sei / analysis-reuse-level=5 / scale-factor=0 / refine-intra=0 / refine-inter=0 / refine-mv=0 / no-limit-sao / ctu-info=0 / no-lowpass-dct / refine-mv-type=0 / copy-pic=1 / max-ausize-factor=1.0 / no-dynamic-refine / no-single-sei
Default : Да
Forced : Нет
Цветовой диапазон : Limited
Основные цвета : BT.709
Характеристики трансфера : BT.709
Коэффициенты матрицы : BT.709
 

Аудио

Идентификатор : 2
Формат : AAC
Формат/Информация : Advanced Audio Codec
Профиль формата : LC
Идентификатор кодека : A_AAC-2
Продолжительность : 1 ч. 29 м.
Битрейт : 790 Кбит/сек
Каналы : 6 каналов
Расположение каналов : Front: L C R, Side: L R, LFE
Частота : 48,0 КГц
Частота кадров : 46,875 кадров/сек (1024 SPF)
Метод сжатия : С потерями
Задержка видео : 20 мс.
Размер потока : 507 Мбайт (25%)
Default : Да
Forced : Нет
 

Текст

Идентификатор : 3
Формат : UTF-8
Идентификатор кодека : S_TEXT/UTF8
Идентификатор кодека/Информация : UTF-8 Plain Text
Продолжительность : 1 ч. 21 м.
Битрейт : 20 бит/сек
ElementCount : 193
Размер потока : 12,4 Кбайт (0%)
Заголовок : форсированные (только песни)
Язык : Russian
Default : Да
Forced : Нет
 
 
 
Размер: 1.97Гб
Категория: Мультфильмы [HEVC] | Добавил: DSIO
Просмотров: 215 | Загрузок: 48 | Комментарии: 4 | Рейтинг: 5.0/2
Всего комментариев: 4
avatar
1
respect  thumb
avatar
0
2
Спасибо!!!
avatar
0
3
Спасибо! Класс!
avatar
0
4
Щас смотрю на скрины и хоть переделывай...дебэндинг фильтр кинуть надо было
avatar