Главная » Файлы » Мультфильмы [HEVC]

Делай ноги / Happy Feet (2006) BDRip 1080p [HEVC] 10bit
23.05.2018, 05:47
Делай ноги / Happy Feet

Год: 2006
Страна(студия): США, Австралия
Жанр: Комедия, приключения, семейный, мультфильм, музыка
Продолжительность: 01:48:32
Перевод: Дублированный

Режиссер: Джордж Миллер, Уоррен Коулмэн, Джуди Моррис
В ролях: Карлос Алазраки, Ломбардо Бойяр, Джефф Гарсиа, Джонни А. Санчез
Описание: В музыкальном мире императорских пингвинов, которые находят себе пару благодаря пению, рождается пингвиненок по имени Мамбл, который не может издать ни одной ноты… зато может отплясывать ту еще чечетку. Его родители, Норма Джин и Мемфис в отчаянии, но надеются, что их лишенный музыкального слуха малыш перерастет свое нелепое танцевальное увлечение. Однако пытаясь пропеть хоть какую-то мелодию, он не может перестать отбивать чечетку даже ради того, чтобы завоевать любовь своей возлюбленной Глории…
Качество: BDRip 1080p Формат: MKV
Видео: H.265 L5.1High 1920x792 23,976 кадр/сек 3995 Кбит/сек 10bit
Аудио: QAAC Русская 6 канала(ов) 353 Кбит/сек 48,0 КГц
MediaInfo

Общее

Уникальный идентификатор : 143020542856748225639133298657393981599 (0x6B98C12E73678B3C4F5796695C3D389F)
Полное имя : Z:\Downloads\Делай ноги - Happy Feet (2006)(1080p).mkv
Формат : Matroska
Версия формата : Version 4 / Version 2
Размер файла : 3,30 Гбайт
Продолжительность : 1 ч. 48 м.
Общий поток : 4347 Кбит/сек
Дата кодирования : UTC 2018-05-22 12:20:52
Программа кодирования : mkvmerge v23.0.0 ('The Bride Said No') 64-bit
Библиотека кодирования : libebml v1.3.6 + libmatroska v1.4.9
Обложка : Yes
Attachments : cover.jpg
 

Видео

Идентификатор : 1
Формат : HEVC
Формат/Информация : High Efficiency Video Coding
Профиль формата : Main 10@L5.1@High
Идентификатор кодека : V_MPEGH/ISO/HEVC
Продолжительность : 1 ч. 48 м.
Битрейт : 3995 Кбит/сек
Ширина : 1920 пикселей
Высота : 792 пикселя
Соотношение сторон : 2,40:1
Режим частоты кадров : Постоянный
Частота кадров : 23,976 (24000/1001) кадра/сек
Цветовое пространство : YUV
Субдискретизация насыщенности : 4:2:0
Битовая глубина : 10 бит
Бит/(Пиксели*Кадры) : 0.110
Размер потока : 3,03 Гбайт (92%)
Библиотека кодирования : x265 2.7+348-0968a46d6ba4:[Windows][MSVC 1914][64 bit] 10bit
Настройки программы : cpuid=1111039 / frame-threads=4 / numa-pools=16 / wpp / pmode / pme / no-psnr / no-ssim / log-level=2 / input-csp=1 / input-res=1920x792 / interlace=0 / total-frames=156137 / level-idc=51 / high-tier=1 / uhd-bd=0 / ref=5 / no-allow-non-conformance / no-repeat-headers / annexb / no-aud / no-hrd / info / hash=0 / no-temporal-layers / open-gop / min-keyint=23 / keyint=250 / gop-lookahead=0 / bframes=8 / b-adapt=2 / b-pyramid / bframe-bias=0 / rc-lookahead=40 / lookahead-slices=0 / scenecut=40 / radl=0 / no-intra-refresh / ctu=64 / min-cu-size=8 / no-rect / no-amp / max-tu-size=32 / tu-inter-depth=4 / tu-intra-depth=4 / limit-tu=0 / rdoq-level=2 / dynamic-rd=0.00 / no-ssim-rd / signhide / tskip / nr-intra=0 / nr-inter=0 / no-constrained-intra / strong-intra-smoothing / max-merge=5 / limit-refs=0 / no-limit-modes / me=3 / subme=6 / merange=64 / temporal-mvp / weightp / weightb / no-analyze-src-pics / deblock=0:0 / no-sao / no-sao-non-deblock / rd=3 / no-early-skip / no-rskip / no-fast-intra / no-tskip-fast / no-cu-lossless / b-intra / no-splitrd-skip / rdpenalty=0 / psy-rd=0.00 / psy-rdoq=0.00 / no-rd-refine / no-lossless / cbqpoffs=0 / crqpoffs=0 / rc=crf / crf=20.0 / qcomp=0.60 / qpstep=4 / stats-write=0 / stats-read=0 / vbv-maxrate=160000 / vbv-bufsize=160000 / vbv-init=0.9 / crf-max=0.0 / crf-min=0.0 / ipratio=1.40 / pbratio=1.30 / aq-mode=1 / aq-strength=1.50 / cutree / zone-count=0 / no-strict-cbr / qg-size=32 / no-rc-grain / qpmax=69 / qpmin=0 / no-const-vbv / sar=1 / overscan=0 / videoformat=5 / range=0 / colorprim=2 / transfer=2 / colormatrix=2 / chromaloc=0 / display-window=0 / max-cll=0,0 / min-luma=0 / max-luma=1023 / log2-max-poc-lsb=8 / vui-timing-info / vui-hrd-info / slices=1 / no-opt-qp-pps / no-opt-ref-list-length-pps / no-multi-pass-opt-rps / scenecut-bias=0.05 / no-opt-cu-delta-qp / no-aq-motion / no-hdr / no-hdr-opt / no-dhdr10-opt / no-idr-recovery-sei / analysis-reuse-level=5 / scale-factor=0 / refine-intra=0 / refine-inter=0 / refine-mv=0 / no-limit-sao / ctu-info=0 / no-lowpass-dct / refine-mv-type=0 / copy-pic=1 / max-ausize-factor=1.0 / no-dynamic-refine / no-single-sei
Default : Да
Forced : Нет
 

Аудио

Идентификатор : 2
Формат : AAC
Формат/Информация : Advanced Audio Codec
Профиль формата : LC
Идентификатор кодека : A_AAC-2
Продолжительность : 1 ч. 48 м.
Битрейт : 353 Кбит/сек
Каналы : 6 каналов
Расположение каналов : Front: L C R, Side: L R, LFE
Частота : 48,0 КГц
Частота кадров : 46,875 кадров/сек (1024 SPF)
Метод сжатия : С потерями
Размер потока : 271 Мбайт (8%)
Default : Да
Forced : Нет
 
 
 
Размер: 3.29Гб
Категория: Мультфильмы [HEVC] | Добавил: DSIO
Просмотров: 191 | Загрузок: 59 | Комментарии: 8 | Рейтинг: 4.4/15
Всего комментариев: 8
avatar
0
1
Спасибо заберу
avatar
0
2
Интересно, по каким критериям кто-то оценивает релиз на 1-цу.
avatar
0
3
Хз, может я не нравлюсь, может QAAC не нравится.
Но стабельно получаю 1-2 еденицы меньше чем за две минуты после выкладывания релизов smile
avatar
0
4
Пятерочка от меня  tongue
avatar
0
5
— Дело в том, что в детстве я наступил на мину. Всё оторвало!
— ВсЁ-О!!
— Нет, ну кое-что осталось... Но только, чтобы пописать!
— И это вы называете «кое-что»? По-моему, вы слишком много кушать! [Щупает причинное место.]
— В смысле?!
— В смысле зажрались!
avatar
6
Это оценка релиза? huh 
Думал это оценка фильма, на сколько он понравился biggrin . DSIO, сорян, это я мертвецам 2,1 понаставил. snap
avatar
0
7
Ну Ё моё. Это же не кинопоиск
avatar
8
Прекрасный мультик. Спасибо за оформление раздачи.
avatar