Среда, 14.11.2018, 14:08
HEVC-CLUB
Профиль
Среда
14.11.2018
14:08

Меню сайта
Категории раздела
Фильмы [HEVC] [1276]
Мультфильмы [HEVC] [97]
Сериалы [HEVC] [67]
Аниме [HEVC] [5]
Документальный [HEVC] [0]
Концерты [HEVC] [47]
UHDRip [HEVC] [45]
Статистика
Онлайн всего: 18
Гостей: 9
Пользователей: 9
[ Полный Список ]

Университет монстров / Monsters University (2013) BDRip 1080p [HEVC] 10 bit
14.09.2018, 18:30

 

Год выхода: 2013

Производство: США / Walt Disney Pictures, Pixar Animation Studios

Жанр: Мультфильм, фэнтези

Продолжительность: 01:43:48

Перевод: Дублированный

 

Режиссер:Дэн Скэнлон

 

Описание: Майк и Салли — самые опытные пугатели в Монстрополисе, но так было далеко не всегда. Когда они встретились впервые, эти монстры терпеть друг друга не могли. «Университет Монстров» — история о том, как наши старые знакомые прошли путь от взаимной неприязни к крепкой дружбе.

 

Качество: BDRip 1080p
Видео: HEVC/H.265, 1920x1080, ~6246 Kbps

Аудио 1: Dolby TrueHD, 8 ch, 4427 Kbps Английский (Оригинал)
Аудио 2: AC3, 6 ch, 640 Kbps Русский (Дублированный)
Субтитры: Английские (полные), Русские (полные)

 

Общее

Уникальный идентификатор : 318923102051432472707837452600497024204 (0xEFEE5AEFAED7AB7ABA3D2D1329062CCC)
Полное имя : H:\Install\Upload\2. Monsters University (2013) BDRip 1080p [HEVC] 10 bit.mkv
Формат : Matroska
Версия формата : Version 4
Размер файла : 8,27 Гбайт
Продолжительность : 1 ч. 43 м.
Режим общего битрейта : Переменный
Общий поток : 11,4 Мбит/сек
Дата кодирования : UTC 2018-09-13 12:32:37
Программа кодирования : mkvmerge v20.0.0 ('I Am The Sun') 64-bit
Библиотека кодирования : libebml v1.3.5 + libmatroska v1.4.8
Обложка : Yes
Attachments : cover.jpg

 

Видео

Идентификатор : 1
Формат : HEVC
Формат/Информация : High Efficiency Video Coding
Профиль формата : Main 10@L5.1@High
Идентификатор кодека : V_MPEGH/ISO/HEVC
Продолжительность : 1 ч. 43 м.
Битрейт : 6246 Кбит/сек
Ширина : 1920 пикселей
Высота : 1080 пикселей
Соотношение сторон : 16:9
Режим частоты кадров : Постоянный
Частота кадров : 23,976 (23976/1000) кадра/сек
Частота кадров в оригинале : 23,976 (24000/1001) кадра/сек
Цветовое пространство : YUV
Субдискретизация насыщенности : 4:2:0
Битовая глубина : 10 бит
Бит/(Пиксели*Кадры) : 0.126
Размер потока : 4,53 Гбайт (55%)
Библиотека кодирования : x265 2.8+19-bcdc610cf5f0:[Windows][GCC 7.3.0][64 bit] 10bit
Настройки программы : cpuid=1111039 / frame-threads=13 / numa-pools=12 / wpp / no-pmode / no-pme / no-psnr / no-ssim / log-level=3 / input-csp=1 / input-res=1920x1080 / interlace=0 / total-frames=0 / level-idc=51 / high-tier=1 / uhd-bd=0 / ref=5 / allow-non-conformance / no-repeat-headers / annexb / no-aud / no-hrd / info / hash=0 / no-temporal-layers / open-gop / min-keyint=24 / keyint=240 / gop-lookahead=0 / bframes=8 / b-adapt=2 / b-pyramid / bframe-bias=0 / rc-lookahead=60 / lookahead-slices=6 / scenecut=40 / radl=0 / no-intra-refresh / ctu=64 / min-cu-size=8 / no-rect / no-amp / max-tu-size=32 / tu-inter-depth=3 / tu-intra-depth=3 / limit-tu=0 / rdoq-level=0 / dynamic-rd=0.00 / no-ssim-rd / signhide / no-tskip / nr-intra=0 / nr-inter=0 / no-constrained-intra / strong-intra-smoothing / max-merge=3 / limit-refs=3 / no-limit-modes / me=3 / subme=7 / merange=64 / temporal-mvp / weightp / weightb / no-analyze-src-pics / deblock=-3:-3 / no-sao / no-sao-non-deblock / rd=4 / no-early-skip / rskip / no-fast-intra / no-tskip-fast / no-cu-lossless / no-b-intra / no-splitrd-skip / rdpenalty=0 / psy-rd=4.00 / psy-rdoq=0.00 / no-rd-refine / no-lossless / cbqpoffs=0 / crqpoffs=0 / rc=crf / crf=16.0 / qcomp=0.60 / qpstep=1 / stats-write=0 / stats-read=0 / vbv-maxrate=160000 / vbv-bufsize=160000 / vbv-init=0.9 / crf-max=30.0 / crf-min=0.0 / ipratio=1.10 / pbratio=1.00 / aq-mode=1 / aq-strength=0.90 / cutree / zone-count=0 / no-strict-cbr / qg-size=32 / no-rc-grain / qpmax=69 / qpmin=0 / no-const-vbv / sar=1 / overscan=0 / videoformat=5 / range=0 / colorprim=2 / transfer=2 / colormatrix=2 / chromaloc=0 / display-window=0 / max-cll=0,0 / min-luma=0 / max-luma=1023 / log2-max-poc-lsb=8 / vui-timing-info / vui-hrd-info / slices=1 / no-opt-qp-pps / no-opt-ref-list-length-pps / no-multi-pass-opt-rps / scenecut-bias=0.05 / no-opt-cu-delta-qp / no-aq-motion / no-hdr / no-hdr-opt / no-dhdr10-opt / no-idr-recovery-sei / analysis-reuse-level=5 / scale-factor=0 / refine-intra=0 / refine-inter=0 / refine-mv=0 / no-limit-sao / ctu-info=0 / no-lowpass-dct / refine-mv-type=0 / copy-pic=1 / max-ausize-factor=1.0 / no-dynamic-refine / no-single-sei
Default : Да
Forced : Нет

 

 

Аудио #1

Идентификатор : 2
Формат : MLP FBA
Формат/Информация : Meridian Lossless Packing FBA
Коммерческое название : Dolby TrueHD
Идентификатор кодека : A_TRUEHD
Продолжительность : 1 ч. 43 м.
Вид битрейта : Переменный
Битрейт : 4427 Кбит/сек
Максимальный битрейт : 5751 Кбит/сек
Каналы : 8 каналов
Channel layout : L R C LFE Ls Rs Lb Rb
Частота : 48,0 КГц
Частота кадров : 1200,000 кадров/сек (40 SPF)
Метод сжатия : Без потерь
Размер потока : 3,21 Гбайт (39%)
Заголовок : Dolby TrueHD Audio English 7.1 / 48 kHz / 4423 kbps / 24-bit (AC3 Embedded: 5.1 / 48 kHz / 640 kbps)
Язык : English
Default : Нет
Forced : Нет

 

 

Аудио #2

Идентификатор : 3
Формат : AC-3
Формат/Информация : Audio Coding 3
Коммерческое название : Dolby Digital
Идентификатор кодека : A_AC3
Продолжительность : 1 ч. 43 м.
Вид битрейта : Постоянный
Битрейт : 640 Кбит/сек
Каналы : 6 каналов
Channel layout : L R C LFE Ls Rs
Частота : 48,0 КГц
Частота кадров : 31,250 кадров/сек (1536 SPF)
Битовая глубина : 16 бит
Метод сжатия : С потерями
Размер потока : 475 Мбайт (6%)
Заголовок : AC3 Russian 5.1 / 48 kHz / 640 kbps
Язык : Russian
ServiceKind/String : Complete Main
Default : Да
Forced : Нет

 

 

Текст #1

Идентификатор : 4
Формат : PGS
Режим смешивания : zlib
Идентификатор кодека : S_HDMV/PGS
Идентификатор кодека/Информация : Picture based subtitle format used on BDs/HD-DVDs
Продолжительность : 1 ч. 42 м.
Битрейт : 48,2 Кбит/сек
ElementCount : 3712
Размер потока : 35,3 Мбайт (0%)
Язык : English
Default : Да
Forced : Нет

 

 

Текст #2

Идентификатор : 5
Формат : PGS
Режим смешивания : zlib
Идентификатор кодека : S_HDMV/PGS
Идентификатор кодека/Информация : Picture based subtitle format used on BDs/HD-DVDs
Продолжительность : 1 ч. 42 м.
Битрейт : 33,2 Кбит/сек
ElementCount : 2446
Размер потока : 24,3 Мбайт (0%)
Язык : Russian
Default : Нет
Forced : Нет

 

 

Меню

00:00:00.000 : en:Глава 01
00:10:00.000 : en:Глава 02
00:20:00.000 : en:Глава 03
00:30:00.000 : en:Глава 04
00:40:00.000 : en:Глава 05
00:50:00.000 : en:Глава 06
01:00:00.000 : en:Глава 07
01:10:00.000 : en:Глава 08
01:20:00.000 : en:Глава 09
01:30:00.000 : en:Глава 10
01:40:00.000 : en:Глава 11

 

 

 

 

Размер файла: 8.27 Гб

Категория: Мультфильмы [HEVC] | Добавил: mafo2
Просмотров: 191 | Загрузок: 57 | Рейтинг: 5.0/1
Всего комментариев: 0
avatar

Поиск

Случайные раздачи
Перейти к просмотру Четверо против банка / Vier gegen die Bank (2016) BDRip 1080p [HEVC] 10Bit
Перейти к просмотру Забери мою душу / My Soul to Take (2010) BDRip 1080p [HEVC] 10bit
Перейти к просмотру Ледниковый период: Пенталогия / Ice Age: The Pentalogy (2002/2006/2009/2012/2016) BDRip 1080p [HEVC] 10bit
Перейти к просмотру Секреты Лос-Анджелеса / L.A. Confidential (1997) BDRip 1080p [HEVC] 10bit
Перейти к просмотру Человек с Земли / The Man from Earth (2007) BDRip 720p [HEVC] 10bit
Перейти к просмотру Приказано уничтожить / Executive Decision (1996) BDRip 1080p [HEVC] 10Bit

Друзья сайта
      






Copyright MyCorp © 2018

uCoz