Пятница, 22.02.2019, 14:53
HEVC-CLUB
Профиль
Пятница
22.02.2019
14:53

Меню сайта
Категории раздела
Фильмы [HEVC] [1395]
Мультфильмы [HEVC] [103]
Сериалы [HEVC] [69]
Аниме [HEVC] [14]
Документальный [HEVC] [0]
Концерты [HEVC] [47]
UHDRip [HEVC] [76]
Опрос
Нужен раздел [DVDRip-HEVC]
Всего ответов: 93
Статистика
Онлайн всего: 9
Гостей: 4
Пользователей: 5
[ Полный Список ]

На западном фронте без перемен / All Quiet on the Western Front (1930) BDRip 1080p [HEVC] 8bit
02.07.2018, 15:58
На западном фронте без перемен / All Quiet on the Western Front

Год: 1930
Страна(студия): США
Жанр: Боевик, драма, военный, история
Продолжительность: 02:13:25
Перевод: Многоголосый закадровый

Режиссер: Льюис Майлстоун
В ролях: Луис Волхайм, Лью Эйрз, Джон Рэй, Арнольд Люси, Бен Александр, Скотт Колк, Оуэн Дэвис мл., Уолтер Роджерс, Уильям Бэйкуэлл
Описание: Рассказ о простых немецких школьниках старших классов, которые под действием патриотической пропаганды идут на войну, принимая её как игру, и не знают, что впереди их ждет только смерть.
Качество: BDRip 1080p Формат: MKV
Видео: H.265 L5.1High 1476x1080 23,976 кадр/сек 7397 Кбит/сек 8bit
Аудио: QAAC Русская 2 канала(ов) 155 Кбит/сек 48,0 КГц
MediaInfo

Общее

Уникальный идентификатор : 339307374721844993934520349178952807251 (0xFF44392C56FF70BB803A752B381DF353)
Полное имя : Z:\Downloads\На западном фронте без перемен - All Quiet On the Western Front (1930)(1080p).mkv
Формат : Matroska
Версия формата : Version 4 / Version 2
Размер файла : 7,04 Гбайт
Продолжительность : 2 ч. 13 м.
Общий поток : 7554 Кбит/сек
Дата кодирования : UTC 2018-06-24 16:37:53
Программа кодирования : mkvmerge v23.0.0 ('The Bride Said No') 64-bit
Библиотека кодирования : libebml v1.3.6 + libmatroska v1.4.9
Обложка : Yes
Attachments : cover.jpg
Encoding Gui : Hybrid 2018.06.18.1
 

Видео

Идентификатор : 1
Формат : HEVC
Формат/Информация : High Efficiency Video Coding
Профиль формата : Main@L5.1@High
Идентификатор кодека : V_MPEGH/ISO/HEVC
Продолжительность : 2 ч. 13 м.
Битрейт : 7397 Кбит/сек
Ширина : 1476 пикселей
Высота : 1080 пикселей
Соотношение сторон : 4:3
Режим частоты кадров : Постоянный
Частота кадров : 23,976 (24000/1001) кадра/сек
Цветовое пространство : YUV
Субдискретизация насыщенности : 4:2:0
Битовая глубина : 8 бит
Бит/(Пиксели*Кадры) : 0.194
Размер потока : 6,89 Гбайт (98%)
Библиотека кодирования : x265 2.8+12-9cde2c278464:[Windows][GCC 7.3.0][64 bit] 8bit+10bit+12bit
Настройки программы : cpuid=1176575 / frame-threads=4 / wpp / no-pmode / no-pme / no-psnr / no-ssim / log-level=2 / input-csp=1 / input-res=1476x1080 / interlace=0 / total-frames=0 / level-idc=51 / high-tier=1 / uhd-bd=0 / ref=4 / no-allow-non-conformance / no-repeat-headers / annexb / no-aud / no-hrd / info / hash=0 / no-temporal-layers / open-gop / min-keyint=23 / keyint=250 / gop-lookahead=0 / bframes=8 / b-adapt=2 / no-b-pyramid / bframe-bias=0 / rc-lookahead=40 / lookahead-slices=4 / scenecut=40 / radl=0 / no-intra-refresh / ctu=64 / min-cu-size=8 / no-rect / no-amp / max-tu-size=32 / tu-inter-depth=2 / tu-intra-depth=2 / limit-tu=4 / rdoq-level=2 / dynamic-rd=0.00 / no-ssim-rd / signhide / no-tskip / nr-intra=0 / nr-inter=0 / no-constrained-intra / strong-intra-smoothing / max-merge=3 / limit-refs=2 / limit-modes / me=3 / subme=7 / merange=64 / temporal-mvp / weightp / weightb / no-analyze-src-pics / deblock=-3:-3 / no-sao / no-sao-non-deblock / rd=6 / no-early-skip / rskip / no-fast-intra / no-tskip-fast / no-cu-lossless / b-intra / no-splitrd-skip / rdpenalty=0 / psy-rd=2.00 / psy-rdoq=1.00 / no-rd-refine / no-lossless / cbqpoffs=0 / crqpoffs=0 / rc=crf / crf=22.0 / qcomp=0.60 / qpstep=4 / stats-write=0 / stats-read=0 / vbv-maxrate=160000 / vbv-bufsize=160000 / vbv-init=0.9 / crf-max=0.0 / crf-min=0.0 / ipratio=1.10 / pbratio=1.10 / aq-mode=1 / aq-strength=0.70 / cutree / zone-count=0 / no-strict-cbr / qg-size=32 / no-rc-grain / qpmax=69 / qpmin=0 / no-const-vbv / sar=1 / overscan=0 / videoformat=5 / range=0 / colorprim=1 / transfer=1 / colormatrix=1 / chromaloc=0 / display-window=0 / max-cll=0,0 / min-luma=0 / max-luma=255 / log2-max-poc-lsb=8 / vui-timing-info / vui-hrd-info / slices=1 / no-opt-qp-pps / no-opt-ref-list-length-pps / no-multi-pass-opt-rps / scenecut-bias=0.05 / no-opt-cu-delta-qp / no-aq-motion / no-hdr / no-hdr-opt / no-dhdr10-opt / no-idr-recovery-sei / analysis-reuse-level=5 / scale-factor=0 / refine-intra=0 / refine-inter=0 / refine-mv=0 / no-limit-sao / ctu-info=0 / no-lowpass-dct / refine-mv-type=0 / copy-pic=1 / max-ausize-factor=1.0 / no-dynamic-refine / no-single-sei
Default : Да
Forced : Да
Цветовой диапазон : Limited
Основные цвета : BT.709
Характеристики трансфера : BT.709
Коэффициенты матрицы : BT.709
 

Аудио

Идентификатор : 2
Формат : AAC
Формат/Информация : Advanced Audio Codec
Профиль формата : LC
Идентификатор кодека : A_AAC-2
Продолжительность : 2 ч. 13 м.
Битрейт : 155 Кбит/сек
Каналы : 2 канала
Расположение каналов : Front: L R
Частота : 48,0 КГц
Частота кадров : 46,875 кадров/сек (1024 SPF)
Метод сжатия : С потерями
Задержка видео : 20 мс.
Размер потока : 148 Мбайт (2%)
Язык : Russian
Default : Да
Forced : Нет
 
 
 
Размер: 7.03Гб
Категория: Фильмы [HEVC] | Добавил: DSIO
Просмотров: 336 | Загрузок: 36 | Комментарии: 11 | Рейтинг: 5.0/2
Всего комментариев: 11
avatar
1 savager • 16:51, 02.07.2018
если фильм снят в 1930м, то речь о первой мировой?
avatar
0
2 DSIO • 16:55, 02.07.2018
Да
avatar
3 mvclub • 00:04, 03.07.2018
Вот бы то же только с перламутровыми пуговицами. Я имею ввиду фильм 1979, который был на экранах СССР. Не попадался?
avatar
0
4 DSIO • 03:57, 03.07.2018
Не смотрел если честно, но слышал
avatar
5 Truhach66 • 21:23, 17.07.2018
Фильм хороший но скочет короче брак....
avatar
0
6 DSIO • 00:25, 20.07.2018
Скочет?
avatar
7 Truhach66 • 09:02, 21.07.2018
Переход с кадра на кадр иногда  перепрыгивает немного но заметно. Скорее всего из за кодировки . Это во многих фильмах есть не только в этом и по этому я их просматриваю короче гемаррой...
avatar
0
8 ХиМиК • 14:40, 21.07.2018
у вас что-то неправильно с частотой обновления. подробнее можете рассказать?
avatar
9 Truhach66 • 18:02, 21.07.2018
Переход с кадра на кадр резкий и не всякий раз я переписывал фильм с другого торрента тоже самое но может вы правы хотя я заметил это и на двд рипах то есть уже знаком с этим.....
avatar
10 Truhach66 • 18:07, 21.07.2018
Я не правильно написал не кадр а фрагмент к фрагменту не переход как то перещелкивание ...
avatar
0
11 ХиМиК • 18:19, 21.07.2018
как воспроизводите?
avatar

Поиск

Случайные раздачи
Перейти к просмотру Человек на Луне / First Man (2018) BDRip 1080p [HEVC] 10bit  [IMAX Edition]
Перейти к просмотру Рокки / Rocky (1976) BDRip 1080p [HEVC] 10bit [4K Remastered] от Tigole
Перейти к просмотру Аксель / A-X-L (2018) BDRip 1080p [HEVC] 10 bit
Перейти к просмотру Лига справедливости / Justice League (2017)  BDRemux 2160p
Перейти к просмотру Крикуны / Screamers (1995) BDRip 1080p [HEVC] 10Bit - KORSAR
Перейти к просмотру Нация убийц / Assassination Nation (2018) BDRip 1080p [HEVC] 10bit от PSAriper

Друзья сайта
      
          FreeHD - коллекция торрент-ссылок HD контента бесплатно и без регистрации






Copyright MyCorp © 2019

uCoz