Несколько хороших парней / A Few Good Men [4K Remastered] (1992) BDRip 1080p [HEVC] 10bit
29.07.2018, 20:41
Несколько хороших парней / A Few Good Men

Год: 1992
Страна(студия): США
Жанр: Триллер, драма
Продолжительность: 02:18:01
Перевод: Многоголосый закадровый

Режиссер: Роб Райнер
В ролях: Том Круз, Деми Мур, Джек Николсон, Кевин Поллак, Кевин Бейкон, Кифер Сазерленд, Джеймс Маршалл, Вольфганг Бодисон, Дж.Т. Уолш, Дж.А. Престон
Описание: Два моряка предстают перед судом за незаконную расправу над своим товарищем. Участь защищать их выпадает на долю молодого самоуверенного потомственного адвоката, который явно предпочитает бейсбол жёстким играм закона. Однако дело оказывается не таким простым, как ему казалось, и он решает раскрыть тайну жестоких убийств и наказать тех, кто несёт ответственность за смерть солдата. Бросив вызов сильным мира сего, он рискует всем: своей карьерой, спокойным существованием, любимой женщиной и даже жизнью. Ведь те, у кого он встал на пути, не остановятся ни перед чем.
Качество: BDRip 1080p Формат: MKV
Видео: H.265 L5.1High 1920x800 23,976 кадр/сек 10,5 Мбит/сек 10bit
Аудио: AC-3 Русская 2 канала(ов) 192 Кбит/сек 48,0 КГц
MediaInfo

Общее

Уникальный идентификатор : 270852648610160380094339341582725992413 (0xCBC4529906A26C5179E73BCC7C1ECFDD)
Полное имя : Z:\Downloads\Несколько хороших парней - A Few Good Men (1992)(1080p).mkv
Формат : Matroska
Версия формата : Version 4 / Version 2
Размер файла : 10,3 Гбайт
Продолжительность : 2 ч. 18 м.
Общий поток : 10,7 Мбит/сек
Дата кодирования : UTC 2018-07-29 17:07:22
Программа кодирования : mkvmerge v25.0.0 ('Prog Noir') 64-bit
Библиотека кодирования : libebml v1.3.6 + libmatroska v1.4.9
Обложка : Yes
Attachments : cover.jpg
Encoding Gui : Hybrid 2018.06.23.1
 

Видео

Идентификатор : 1
Формат : HEVC
Формат/Информация : High Efficiency Video Coding
Профиль формата : Main 10@L5.1@High
Идентификатор кодека : V_MPEGH/ISO/HEVC
Продолжительность : 2 ч. 18 м.
Битрейт : 10,5 Мбит/сек
Ширина : 1920 пикселей
Высота : 800 пикселей
Соотношение сторон : 2,40:1
Режим частоты кадров : Постоянный
Частота кадров : 23,976 (24000/1001) кадра/сек
Цветовое пространство : YUV
Субдискретизация насыщенности : 4:2:0
Битовая глубина : 10 бит
Бит/(Пиксели*Кадры) : 0.285
Размер потока : 10,1 Гбайт (98%)
Библиотека кодирования : x265 2.8+23-656b5b442f0b:[Windows][GCC 7.3.0][64 bit] 10bit
Настройки программы : cpuid=1176575 / frame-threads=4 / numa-pools=16 / wpp / no-pmode / no-pme / no-psnr / no-ssim / log-level=2 / input-csp=1 / input-res=1920x800 / interlace=0 / total-frames=0 / level-idc=51 / high-tier=1 / uhd-bd=0 / ref=5 / no-allow-non-conformance / no-repeat-headers / annexb / no-aud / no-hrd / info / hash=0 / no-temporal-layers / open-gop / min-keyint=23 / keyint=250 / gop-lookahead=0 / bframes=8 / b-adapt=2 / no-b-pyramid / bframe-bias=0 / rc-lookahead=60 / lookahead-slices=4 / scenecut=40 / radl=0 / no-intra-refresh / ctu=64 / min-cu-size=8 / no-rect / no-amp / max-tu-size=32 / tu-inter-depth=2 / tu-intra-depth=2 / limit-tu=4 / rdoq-level=2 / dynamic-rd=0.00 / no-ssim-rd / signhide / no-tskip / nr-intra=0 / nr-inter=0 / no-constrained-intra / strong-intra-smoothing / max-merge=3 / limit-refs=2 / limit-modes / me=3 / subme=7 / merange=64 / temporal-mvp / weightp / weightb / no-analyze-src-pics / deblock=-3:-3 / no-sao / no-sao-non-deblock / rd=6 / no-early-skip / rskip / no-fast-intra / no-tskip-fast / no-cu-lossless / b-intra / no-splitrd-skip / rdpenalty=0 / psy-rd=2.00 / psy-rdoq=1.00 / no-rd-refine / no-lossless / cbqpoffs=0 / crqpoffs=0 / rc=crf / crf=18.0 / qcomp=0.70 / qpstep=4 / stats-write=0 / stats-read=0 / vbv-maxrate=160000 / vbv-bufsize=160000 / vbv-init=0.9 / crf-max=0.0 / crf-min=0.0 / ipratio=1.40 / pbratio=1.30 / aq-mode=1 / aq-strength=0.70 / cutree / zone-count=0 / no-strict-cbr / qg-size=32 / no-rc-grain / qpmax=69 / qpmin=0 / no-const-vbv / sar=0 / overscan=0 / videoformat=5 / range=0 / colorprim=9 / transfer=16 / colormatrix=1 / chromaloc=0 / display-window=0 / max-cll=0,0 / min-luma=0 / max-luma=1023 / log2-max-poc-lsb=8 / vui-timing-info / vui-hrd-info / slices=1 / no-opt-qp-pps / no-opt-ref-list-length-pps / no-multi-pass-opt-rps / scenecut-bias=0.05 / no-opt-cu-delta-qp / no-aq-motion / no-hdr / no-hdr-opt / no-dhdr10-opt / no-idr-recovery-sei / analysis-reuse-level=5 / scale-factor=0 / refine-intra=0 / refine-inter=0 / refine-mv=0 / no-limit-sao / ctu-info=0 / no-lowpass-dct / refine-mv-type=0 / copy-pic=1 / max-ausize-factor=1.0 / no-dynamic-refine / no-single-sei
Default : Да
Forced : Да
Цветовой диапазон : Limited
Основные цвета : BT.2020
Характеристики трансфера : PQ
Коэффициенты матрицы : BT.709
 

Аудио

Идентификатор : 2
Формат : AC-3
Формат/Информация : Audio Coding 3
Идентификатор кодека : A_AC3
Продолжительность : 2 ч. 18 м.
Вид битрейта : Постоянный
Битрейт : 192 Кбит/сек
Каналы : 2 канала
Расположение каналов : Front: L R
Частота : 48,0 КГц
Частота кадров : 31,250 кадров/сек (1536 SPF)
Битовая глубина : 16 бит
Метод сжатия : С потерями
Размер потока : 190 Мбайт (2%)
Язык : Russian
ServiceKind/String : Complete Main
Default : Да
Forced : Нет
 
 
 
Размер: 10.3Гб
Категория: Фильмы [HEVC] | Добавил: DSIO
Просмотров: 334 | Загрузок: 100 | Комментарии: 6 | Рейтинг: 4.4/9
Всего комментариев: 6
avatar
0
1
Спасибо! Фильм супер!
avatar
2
Пощадите наши HDD (и семейный бюджет соответственно)!
avatar
3
Тяжеловат рипчик конечно. Плюс дубляж есть к этому фильму
avatar
4
а что с цветом,покушали перец чили?
avatar
0
5
Всмысле?
avatar
0
6
Да ничего с цветом. У меня показывает норм.
avatar