Среда, 24.10.2018, 08:08
HEVC-CLUB
Меню сайта
Категории раздела
Фильмы [HEVC] [1233]
Мультфильмы [HEVC] [95]
Сериалы [HEVC] [64]
Аниме [HEVC] [5]
Документальный [HEVC] [0]
Концерты [HEVC] [45]
UHDRip [HEVC] [35]
Поиск
Мини-чат
Статистика
Онлайн всего: 6
Гостей: 1
Пользователей: 5
[ Полный Список ]

Однажды в Америке [Расширенная версия] / Once Upon a Time in America [Extended Director's Cut] (1983) BDRip 1080p [HEVC] 10bit
19.07.2018, 20:24
Однажды в Америке / Once Upon a Time in America

Год: 1983
Страна(студия): США, Италия
Жанр: Драма, криминал
Продолжительность: 04:11:00
Перевод: Авторский (Юрий Сербин)

Режиссер: Серджио Леоне
В ролях: Роберт Де Ниро, Джеймс Вудс, Элизабет МакГоверн, Джо Пеши, Берт Янг, Тьюзди Уэлд, Трит Уильямс, Дэнни Айелло, Ричард Брайт
Описание: В бурные двадцатые годы, когда Америка веселилась под звуки джаза и каждый бродяга мечтал стать миллионером, в трущобах Нью-Йорка встретились несколько отчаянных парней. Убирая с дороги конкурентов, безжалостно карая предателей и нагло проворачивая хитроумные аферы, они стали королями преступного мира золотой эры «сухого закона». Они поклялись отдать жизнь друг за друга, зная, что самое главное для них — это дружба, долг и справедливость — не утопить в реках крови и бездонном океане денег. Спустя много лет судьба жестоко обошлась с легендарными гангстерами, заставив их исполнить свою клятву. Это случилось однажды в Америке…
Качество: BDRip 1080p Формат: MKV
Видео: H.265 L5.1High 1920x1040 23,976 кадр/сек 6683 Кбит/сек 10bit
Аудио: QAAC Русская 6 канала(ов) 384 Кбит/сек 48,0 КГц
MediaInfo

Общее

Уникальный идентификатор : 258328644784056213435604959434875530655 (0xC25849891A151DC289E84B08FD52ED9F)
Полное имя : Z:\Downloads\Однажды в Америке - Once Upon a Time in America (1983)(1080p).mkv
Формат : Matroska
Версия формата : Version 4 / Version 2
Размер файла : 12,4 Гбайт
Продолжительность : 4 ч. 11 м.
Общий поток : 7076 Кбит/сек
Дата кодирования : UTC 2018-07-19 16:40:26
Программа кодирования : mkvmerge v25.0.0 ('Prog Noir') 64-bit
Библиотека кодирования : libebml v1.3.6 + libmatroska v1.4.9
Обложка : Yes
Attachments : cover.jpg
 

Видео

Идентификатор : 1
Формат : HEVC
Формат/Информация : High Efficiency Video Coding
Профиль формата : Main 10@L5.1@High
Идентификатор кодека : V_MPEGH/ISO/HEVC
Продолжительность : 4 ч. 11 м.
Битрейт : 6683 Кбит/сек
Ширина : 1920 пикселей
Высота : 1040 пикселей
Соотношение сторон : 1,85:1
Режим частоты кадров : Постоянный
Частота кадров : 24,000 кадра/сек
Цветовое пространство : YUV
Субдискретизация насыщенности : 4:2:0
Битовая глубина : 10 бит
Бит/(Пиксели*Кадры) : 0.139
Размер потока : 11,7 Гбайт (94%)
Библиотека кодирования : x265 2.8+23-656b5b442f0b:[Windows][GCC 7.3.0][64 bit] 10bit
Настройки программы : cpuid=1176575 / frame-threads=4 / numa-pools=16 / wpp / no-pmode / no-pme / no-psnr / no-ssim / log-level=2 / input-csp=1 / input-res=1920x1040 / interlace=0 / total-frames=0 / level-idc=51 / high-tier=1 / uhd-bd=0 / ref=5 / no-allow-non-conformance / no-repeat-headers / annexb / no-aud / no-hrd / info / hash=0 / no-temporal-layers / open-gop / min-keyint=24 / keyint=250 / gop-lookahead=0 / bframes=8 / b-adapt=2 / no-b-pyramid / bframe-bias=0 / rc-lookahead=40 / lookahead-slices=4 / scenecut=40 / radl=0 / no-intra-refresh / ctu=64 / min-cu-size=8 / no-rect / no-amp / max-tu-size=32 / tu-inter-depth=2 / tu-intra-depth=2 / limit-tu=4 / rdoq-level=2 / dynamic-rd=0.00 / no-ssim-rd / signhide / no-tskip / nr-intra=0 / nr-inter=0 / no-constrained-intra / strong-intra-smoothing / max-merge=3 / limit-refs=2 / limit-modes / me=3 / subme=7 / merange=64 / temporal-mvp / weightp / weightb / no-analyze-src-pics / deblock=-3:-3 / no-sao / no-sao-non-deblock / rd=6 / no-early-skip / rskip / no-fast-intra / no-tskip-fast / no-cu-lossless / b-intra / no-splitrd-skip / rdpenalty=0 / psy-rd=2.00 / psy-rdoq=1.00 / no-rd-refine / no-lossless / cbqpoffs=0 / crqpoffs=0 / rc=crf / crf=18.0 / qcomp=0.60 / qpstep=4 / stats-write=0 / stats-read=0 / vbv-maxrate=160000 / vbv-bufsize=160000 / vbv-init=0.9 / crf-max=0.0 / crf-min=0.0 / ipratio=1.10 / pbratio=1.10 / aq-mode=1 / aq-strength=0.70 / cutree / zone-count=0 / no-strict-cbr / qg-size=32 / no-rc-grain / qpmax=69 / qpmin=0 / no-const-vbv / sar=0 / overscan=0 / videoformat=5 / range=0 / colorprim=2 / transfer=2 / colormatrix=1 / chromaloc=0 / display-window=0 / max-cll=0,0 / min-luma=0 / max-luma=1023 / log2-max-poc-lsb=8 / vui-timing-info / vui-hrd-info / slices=1 / no-opt-qp-pps / no-opt-ref-list-length-pps / no-multi-pass-opt-rps / scenecut-bias=0.05 / no-opt-cu-delta-qp / no-aq-motion / no-hdr / no-hdr-opt / no-dhdr10-opt / no-idr-recovery-sei / analysis-reuse-level=5 / scale-factor=0 / refine-intra=0 / refine-inter=0 / refine-mv=0 / no-limit-sao / ctu-info=0 / no-lowpass-dct / refine-mv-type=0 / copy-pic=1 / max-ausize-factor=1.0 / no-dynamic-refine / no-single-sei
Default : Да
Forced : Да
Цветовой диапазон : Limited
Коэффициенты матрицы : BT.709
 

Аудио

Идентификатор : 2
Формат : AAC
Формат/Информация : Advanced Audio Codec
Профиль формата : LC
Идентификатор кодека : A_AAC-2
Продолжительность : 4 ч. 11 м.
Битрейт : 384 Кбит/сек
Каналы : 6 каналов
Расположение каналов : Front: L C R, Side: L R, LFE
Частота : 48,0 КГц
Частота кадров : 46,875 кадров/сек (1024 SPF)
Метод сжатия : С потерями
Задержка видео : 20 мс.
Размер потока : 702 Мбайт (6%)
Язык : Russian
Default : Да
Forced : Нет
 
 
 
Размер: 12.4Гб
Категория: Фильмы [HEVC] | Добавил: DSIO
Просмотров: 605 | Загрузок: 175 | Комментарии: 6 | Рейтинг: 5.0/5
Всего комментариев: 6
avatar
0
1
Весчь
avatar
2
Спасибо  hands
avatar
0
3
respect
avatar
4
спасибо за расширенную версию? а театралка планируется?
там картинка сильно отличается по цветности. В коллекции хорошо иметь обе
avatar
0
5
http://hevc-club.ucoz.net/load/odnazhdy_v_amerike_once_upon_a_time_in_america_1984_bdrip_1080p_hevc/1-1-0-493
avatar
6
respect
avatar

Профиль
Среда
24.10.2018
08:08


Случайные Новости
Перейти к просмотру Бэтмен навсегда (1995) [H.265/1080p-LQ] [10-bit]
Перейти к просмотру Человек-муравей и Оса (2018) BDRip 1080p [HEVC] 10 bit
Перейти к просмотру Кулинарные поединки Сомы / Shokugeki no Souma (TV-1) [2015] - BDRip 1080p [HEVC] 10 Bit
Перейти к просмотру Сумасшедшая езда / Drive Angry (2011) BDRip 1080p [HEVC] 10bit
Перейти к просмотру Это безумный, безумный, безумный, безумный мир / It's a Mad Mad Mad Mad World (1963) BDRip 1080p [HEVC] 10 bit
Перейти к просмотру Смертельная гонка / Death Race [UNRATED] (2008) BDRip 1080p [HEVC] 10bit

Друзья сайта
      






Copyright MyCorp © 2018

uCoz