Главная » Файлы » Фильмы [HEVC]

Онг-Бак / Ong-Bak (2003) BDRip 1080p [HEVC] 10bit
12.07.2018, 14:47
Онг-Бак / Ong-Bak

Год: 2003
Страна(студия): Таиланд
Жанр: Боевик, триллер, криминал, приключения
Продолжительность: 01:44:30
Перевод: Многоголосый закадровый

Режиссер: Прачья Пинкаю
В ролях: Петчтай Вонгкамлао, Тони Джа, Пумвари Йодкамол, Сухао Понгвилай, Чумпхорн Тепфитак, Чатевут Ватчаракхун, Ваннакит Сириопут, Рунграви Баридзиндакул
Описание: Жителей небольшой деревушки Нагпраду, расположенной на северо-востоке Таиланда, постигает несчастье — пропала голова статуи Будды по имени Онг Бак. Чтобы вернуть святыню, требуется человек, обладающий не только умом, но и физической силой. Единственный, кто отвечает этим требованиям, — это Тинг, перенявший боевое искусство муай-тай у почитаемого в деревне монаха.
Качество: BDRip 1080p Формат: MKV
Видео: H.265 L5.1High 1920x1040 24 кадр/сек 12.7 Мбит/сек 10bit
Аудио: QAAC Русская 6 канала(ов) 427 Кбит/сек 48,0 КГц
MediaInfo

Общее

Уникальный идентификатор : 174311943606112013901434822190484499572 (0x83234259FBB48D2D6C36F5DE4D5D2C74)
Полное имя : Z:\Downloads\Онг Бак - Ong Bak (2003)(1080p).mkv
Формат : Matroska
Версия формата : Version 4 / Version 2
Размер файла : 9,62 Гбайт
Продолжительность : 1 ч. 44 м.
Общий поток : 13,2 Мбит/сек
Дата кодирования : UTC 2018-07-09 17:10:50
Программа кодирования : mkvmerge v23.0.0 ('The Bride Said No') 64-bit
Библиотека кодирования : libebml v1.3.6 + libmatroska v1.4.9
Обложка : Yes
Attachments : cover.jpg
Encoding Gui : Hybrid 2018.06.23.1
 

Видео

Идентификатор : 2
Формат : HEVC
Формат/Информация : High Efficiency Video Coding
Профиль формата : Main 10@L5.1@High
Идентификатор кодека : V_MPEGH/ISO/HEVC
Продолжительность : 1 ч. 44 м.
Битрейт : 12,7 Мбит/сек
Ширина : 1920 пикселей
Высота : 1040 пикселей
Соотношение сторон : 1,85:1
Режим частоты кадров : Постоянный
Частота кадров : 24,000 кадра/сек
Цветовое пространство : YUV
Субдискретизация насыщенности : 4:2:0
Битовая глубина : 10 бит
Бит/(Пиксели*Кадры) : 0.266
Размер потока : 9,30 Гбайт (97%)
Библиотека кодирования : x265 2.8+23-656b5b442f0b:[Windows][GCC 7.3.0][64 bit] 10bit
Настройки программы : cpuid=1176575 / frame-threads=4 / numa-pools=16 / wpp / no-pmode / no-pme / no-psnr / no-ssim / log-level=2 / input-csp=1 / input-res=1920x1040 / interlace=0 / total-frames=0 / level-idc=51 / high-tier=1 / uhd-bd=0 / ref=5 / no-allow-non-conformance / no-repeat-headers / annexb / no-aud / no-hrd / info / hash=0 / no-temporal-layers / open-gop / min-keyint=24 / keyint=250 / gop-lookahead=0 / bframes=8 / b-adapt=2 / no-b-pyramid / bframe-bias=0 / rc-lookahead=40 / lookahead-slices=4 / scenecut=40 / radl=0 / no-intra-refresh / ctu=64 / min-cu-size=8 / no-rect / no-amp / max-tu-size=32 / tu-inter-depth=2 / tu-intra-depth=2 / limit-tu=4 / rdoq-level=2 / dynamic-rd=0.00 / no-ssim-rd / signhide / no-tskip / nr-intra=0 / nr-inter=0 / no-constrained-intra / strong-intra-smoothing / max-merge=3 / limit-refs=2 / limit-modes / me=3 / subme=7 / merange=64 / temporal-mvp / weightp / weightb / no-analyze-src-pics / deblock=-1:-1 / no-sao / no-sao-non-deblock / rd=6 / no-early-skip / rskip / no-fast-intra / no-tskip-fast / no-cu-lossless / b-intra / no-splitrd-skip / rdpenalty=0 / psy-rd=2.00 / psy-rdoq=1.00 / no-rd-refine / no-lossless / cbqpoffs=0 / crqpoffs=0 / rc=crf / crf=18.0 / qcomp=0.60 / qpstep=4 / stats-write=0 / stats-read=0 / vbv-maxrate=160000 / vbv-bufsize=160000 / vbv-init=0.9 / crf-max=0.0 / crf-min=0.0 / ipratio=1.10 / pbratio=1.10 / aq-mode=1 / aq-strength=0.70 / cutree / zone-count=0 / no-strict-cbr / qg-size=32 / no-rc-grain / qpmax=69 / qpmin=0 / no-const-vbv / sar=0 / overscan=0 / videoformat=5 / range=0 / colorprim=2 / transfer=2 / colormatrix=1 / chromaloc=0 / display-window=0 / max-cll=0,0 / min-luma=0 / max-luma=1023 / log2-max-poc-lsb=8 / vui-timing-info / vui-hrd-info / slices=1 / no-opt-qp-pps / no-opt-ref-list-length-pps / no-multi-pass-opt-rps / scenecut-bias=0.05 / no-opt-cu-delta-qp / no-aq-motion / no-hdr / no-hdr-opt / no-dhdr10-opt / no-idr-recovery-sei / analysis-reuse-level=5 / scale-factor=0 / refine-intra=0 / refine-inter=0 / refine-mv=0 / no-limit-sao / ctu-info=0 / no-lowpass-dct / refine-mv-type=0 / copy-pic=1 / max-ausize-factor=1.0 / no-dynamic-refine / no-single-sei
Default : Да
Forced : Да
Цветовой диапазон : Limited
Коэффициенты матрицы : BT.709
 

Аудио

Идентификатор : 1
Формат : AAC
Формат/Информация : Advanced Audio Codec
Профиль формата : LC
Идентификатор кодека : A_AAC-2
Продолжительность : 1 ч. 44 м.
Битрейт : 427 Кбит/сек
Каналы : 6 каналов
Расположение каналов : Front: L C R, Side: L R, LFE
Частота : 48,0 КГц
Частота кадров : 46,875 кадров/сек (1024 SPF)
Метод сжатия : С потерями
Задержка видео : 20 мс.
Размер потока : 319 Мбайт (3%)
Default : Да
Forced : Нет
 
 
 
Размер: 9.61Гб
Категория: Фильмы [HEVC] | Добавил: DSIO
Просмотров: 206 | Загрузок: 94 | Комментарии: 3 | Рейтинг: 5.0/3
Всего комментариев: 3
avatar
1
Зачётный фильм, должен выйти новый фильм - Тройная угроза.
Спасибо за релиз.
avatar
2
Благодарю, отличный фильм, сцены боёв просто класс!!!
avatar
3
Судя по коментариям , должен быть не плохой, проверим.
avatar