Среда, 24.10.2018, 07:53
HEVC-CLUB
Меню сайта
Категории раздела
Фильмы [HEVC] [1233]
Мультфильмы [HEVC] [95]
Сериалы [HEVC] [64]
Аниме [HEVC] [5]
Документальный [HEVC] [0]
Концерты [HEVC] [45]
UHDRip [HEVC] [35]
Поиск
Мини-чат
Статистика
Онлайн всего: 5
Гостей: 3
Пользователей: 2
[ Полный Список ]

Печать зла / Touch of Evil (1958) BDRip 1080p [HEVC] 8bit
14.07.2018, 18:44
Печать зла / Touch of Evil

Год: 1958
Страна(студия): США
Жанр: Нуар, триллер, криминал
Продолжительность: 01:50:47
Перевод: Многоголосый закадровый

Режиссер: Орсон Уэллс
В ролях: Чарлтон Хестон, Джанет Ли, Орсон Уэллс, Джозеф Каллейа, Аким Тамирофф, Джоанна Мур, Рэй Коллинз, Деннис Уивер, Валентин Де Варгас, Морт Миллз
Описание: Печатью зла отмечен маленький городок на американо-мексиканской границе. Её оттиск ложится и на главных героев этого мрачного триллера. В частности, на мексиканского агента отдела по борьбе с наркотиками Мигеля Варгаса, превращающегося из законопослушного мужа и полицейского в мстительного безумца, на его невинную жену Сьюзан, погруженную преступниками в пучину наркотического транса, и на американского полицейского Хэнка Куинлана, продавшего душу дьяволу наживы.
Качество: BDRip 1080p Формат: MKV
Видео: H.265 L5.1High 1466x1080 23,976 кадр/сек 5966 Кбит/сек 8bit
Аудио: AC-3 Русская 2 канала(ов) 192 Кбит/сек 48,0 КГц
MediaInfo

Общее

Уникальный идентификатор : 28279707850080352029273495590364036856 (0x1546793EF1AA2183EA65C947C99CBEF8)
Полное имя : Z:\Downloads\Печать зла - Touch of Evil (1958)(1080p).mkv
Формат : Matroska
Версия формата : Version 4 / Version 2
Размер файла : 4,77 Гбайт
Продолжительность : 1 ч. 50 м.
Общий поток : 6159 Кбит/сек
Дата кодирования : UTC 2018-07-14 05:51:58
Программа кодирования : mkvmerge v25.0.0 ('Prog Noir') 64-bit
Библиотека кодирования : libebml v1.3.6 + libmatroska v1.4.9
Обложка : Yes
Attachments : cover.jpg
Encoding Gui : Hybrid 2018.06.23.1
 

Видео

Идентификатор : 1
Формат : HEVC
Формат/Информация : High Efficiency Video Coding
Профиль формата : Main@L5.1@High
Идентификатор кодека : V_MPEGH/ISO/HEVC
Продолжительность : 1 ч. 50 м.
Битрейт : 5966 Кбит/сек
Ширина : 1466 пикселей
Высота : 1080 пикселей
Соотношение сторон : 4:3
Режим частоты кадров : Постоянный
Частота кадров : 23,976 (24000/1001) кадра/сек
Цветовое пространство : YUV
Субдискретизация насыщенности : 4:2:0
Битовая глубина : 8 бит
Бит/(Пиксели*Кадры) : 0.157
Размер потока : 4,62 Гбайт (97%)
Библиотека кодирования : x265 2.8+23-656b5b442f0b:[Windows][GCC 7.3.0][64 bit] 8bit+10bit+12bit
Настройки программы : cpuid=1176575 / frame-threads=4 / numa-pools=16 / wpp / no-pmode / no-pme / no-psnr / no-ssim / log-level=2 / input-csp=1 / input-res=1466x1080 / interlace=0 / total-frames=0 / level-idc=51 / high-tier=1 / uhd-bd=0 / ref=5 / no-allow-non-conformance / no-repeat-headers / annexb / no-aud / no-hrd / info / hash=0 / no-temporal-layers / open-gop / min-keyint=23 / keyint=250 / gop-lookahead=0 / bframes=8 / b-adapt=2 / no-b-pyramid / bframe-bias=0 / rc-lookahead=40 / lookahead-slices=4 / scenecut=40 / radl=0 / no-intra-refresh / ctu=64 / min-cu-size=8 / no-rect / no-amp / max-tu-size=32 / tu-inter-depth=2 / tu-intra-depth=2 / limit-tu=4 / rdoq-level=2 / dynamic-rd=0.00 / no-ssim-rd / signhide / no-tskip / nr-intra=0 / nr-inter=0 / no-constrained-intra / strong-intra-smoothing / max-merge=3 / limit-refs=2 / limit-modes / me=3 / subme=7 / merange=64 / temporal-mvp / weightp / weightb / no-analyze-src-pics / deblock=-3:-3 / no-sao / no-sao-non-deblock / rd=6 / no-early-skip / rskip / no-fast-intra / no-tskip-fast / no-cu-lossless / b-intra / no-splitrd-skip / rdpenalty=0 / psy-rd=2.00 / psy-rdoq=1.00 / no-rd-refine / no-lossless / cbqpoffs=0 / crqpoffs=0 / rc=crf / crf=21.0 / qcomp=0.60 / qpstep=4 / stats-write=0 / stats-read=0 / vbv-maxrate=160000 / vbv-bufsize=160000 / vbv-init=0.9 / crf-max=0.0 / crf-min=0.0 / ipratio=1.10 / pbratio=1.10 / aq-mode=1 / aq-strength=0.70 / cutree / zone-count=0 / no-strict-cbr / qg-size=32 / no-rc-grain / qpmax=69 / qpmin=0 / no-const-vbv / sar=1 / overscan=0 / videoformat=5 / range=0 / colorprim=1 / transfer=1 / colormatrix=1 / chromaloc=0 / display-window=0 / max-cll=0,0 / min-luma=0 / max-luma=255 / log2-max-poc-lsb=8 / vui-timing-info / vui-hrd-info / slices=1 / no-opt-qp-pps / no-opt-ref-list-length-pps / no-multi-pass-opt-rps / scenecut-bias=0.05 / no-opt-cu-delta-qp / no-aq-motion / no-hdr / no-hdr-opt / no-dhdr10-opt / no-idr-recovery-sei / analysis-reuse-level=5 / scale-factor=0 / refine-intra=0 / refine-inter=0 / refine-mv=0 / no-limit-sao / ctu-info=0 / no-lowpass-dct / refine-mv-type=0 / copy-pic=1 / max-ausize-factor=1.0 / no-dynamic-refine / no-single-sei
Default : Да
Forced : Да
Цветовой диапазон : Limited
Основные цвета : BT.709
Характеристики трансфера : BT.709
Коэффициенты матрицы : BT.709
 

Аудио

Идентификатор : 2
Формат : AC-3
Формат/Информация : Audio Coding 3
Идентификатор кодека : A_AC3
Продолжительность : 1 ч. 50 м.
Вид битрейта : Постоянный
Битрейт : 192 Кбит/сек
Каналы : 2 канала
Расположение каналов : Front: L R
Частота : 48,0 КГц
Частота кадров : 31,250 кадров/сек (1536 SPF)
Битовая глубина : 16 бит
Метод сжатия : С потерями
Размер потока : 152 Мбайт (3%)
Язык : Russian
ServiceKind/String : Complete Main
Default : Да
Forced : Нет
 
 
 
Размер: 4.76Гб
Категория: Фильмы [HEVC] | Добавил: DSIO
Просмотров: 179 | Загрузок: 34 | Рейтинг: 5.0/3
Всего комментариев: 0
avatar

Профиль
Среда
24.10.2018
07:53


Случайные Новости
Перейти к просмотру Телепорт / Jumper (2008) BDRip 1080p [HEVC] 10bit
Перейти к просмотру Судный день (2008) [Unrated Cut] BDRip 1080p [HEVC] 10 bit
Перейти к просмотру Из Парижа с любовью / From Paris with Love (2009) BDRip 1080p [HEVC] 10 bit
Перейти к просмотру Перл Харбор / Pearl Harbor (2001) BDRip 1080p [HEVC] 10 Bit
Перейти к просмотру Эволюция / Evolution (2001) D-Theater 1080i [HEVC] 10bit
Перейти к просмотру Титаник / Titanic (1997) UHDRip 2160p [HEVC] 10 bit [HDR]

Друзья сайта
      






Copyright MyCorp © 2018

uCoz