Перелом / Fracture (2007) BDRip 1080p LQ [HEVC] 10bit
14.07.2018, 18:30
Перелом / Fracture

Год: 2007
Страна(студия): Германия, США
Жанр: Триллер, драма, криминал, детектив
Продолжительность: 01:53:27
Перевод: Дублированный

Режиссер: Грегори Хоблит
В ролях: Энтони Хопкинс, Райан Гослинг, Дэвид Стрэтэйрн, Розамунд Пайк, Эмбет Дэвидц, Билли Бёрк, Клифф Кёртис, Фиона Шоу, Боб Гантон, Джош Стэмберг
Описание: Ассистент окружного прокурора оказывается втянутым в хитроумную игру в «кошки-мышки» человеком, который пытался убить свою жену, но избежал тюремного заключения благодаря нелепой бюрократической ошибке.
Качество: BDRip 1080p Формат: MKV
Видео: H.265 L5.1High 1920x816 23,976 кадр/сек 2792 Кбит/сек 10bit
Аудио: QAAC Русская 6 канала(ов) 394 Кбит/сек 48,0 КГц
MediaInfo

Общее

Уникальный идентификатор : 305393325362228517331230524420921071717 (0xE5C09D717FCE446D866E503208799865)
Полное имя : Z:\Downloads\Перелом - Fracture (2007)(1080p).mkv
Формат : Matroska
Версия формата : Version 4 / Version 2
Размер файла : 2,53 Гбайт
Продолжительность : 1 ч. 53 м.
Общий поток : 3189 Кбит/сек
Дата кодирования : UTC 2018-07-14 05:45:45
Программа кодирования : mkvmerge v25.0.0 ('Prog Noir') 64-bit
Библиотека кодирования : libebml v1.3.6 + libmatroska v1.4.9
Обложка : Yes
Attachments : cover.jpg
Encoding Gui : Hybrid 2018.06.23.1
 

Видео

Идентификатор : 1
Формат : HEVC
Формат/Информация : High Efficiency Video Coding
Профиль формата : Main 10@L5.1@High
Идентификатор кодека : V_MPEGH/ISO/HEVC
Продолжительность : 1 ч. 53 м.
Битрейт : 2792 Кбит/сек
Ширина : 1920 пикселей
Высота : 816 пикселей
Соотношение сторон : 2,35:1
Режим частоты кадров : Постоянный
Частота кадров : 23,976 (24000/1001) кадра/сек
Цветовое пространство : YUV
Субдискретизация насыщенности : 4:2:0
Битовая глубина : 10 бит
Бит/(Пиксели*Кадры) : 0.074
Размер потока : 2,21 Гбайт (88%)
Библиотека кодирования : x265 2.8+23-656b5b442f0b:[Windows][GCC 7.3.0][64 bit] 10bit
Настройки программы : cpuid=1176575 / frame-threads=4 / numa-pools=16 / wpp / no-pmode / no-pme / no-psnr / no-ssim / log-level=2 / input-csp=1 / input-res=1920x816 / interlace=0 / total-frames=0 / level-idc=51 / high-tier=1 / uhd-bd=0 / ref=5 / no-allow-non-conformance / no-repeat-headers / annexb / no-aud / no-hrd / info / hash=0 / no-temporal-layers / open-gop / min-keyint=23 / keyint=250 / gop-lookahead=0 / bframes=8 / b-adapt=2 / no-b-pyramid / bframe-bias=0 / rc-lookahead=40 / lookahead-slices=4 / scenecut=40 / radl=0 / no-intra-refresh / ctu=64 / min-cu-size=8 / no-rect / no-amp / max-tu-size=32 / tu-inter-depth=2 / tu-intra-depth=2 / limit-tu=4 / rdoq-level=2 / dynamic-rd=0.00 / no-ssim-rd / signhide / no-tskip / nr-intra=0 / nr-inter=0 / no-constrained-intra / strong-intra-smoothing / max-merge=3 / limit-refs=2 / limit-modes / me=3 / subme=7 / merange=64 / temporal-mvp / weightp / weightb / no-analyze-src-pics / deblock=-3:-3 / no-sao / no-sao-non-deblock / rd=6 / no-early-skip / rskip / no-fast-intra / no-tskip-fast / no-cu-lossless / b-intra / no-splitrd-skip / rdpenalty=0 / psy-rd=2.00 / psy-rdoq=1.00 / no-rd-refine / no-lossless / cbqpoffs=0 / crqpoffs=0 / rc=crf / crf=18.0 / qcomp=0.60 / qpstep=4 / stats-write=0 / stats-read=0 / vbv-maxrate=160000 / vbv-bufsize=160000 / vbv-init=0.9 / crf-max=0.0 / crf-min=0.0 / ipratio=1.40 / pbratio=1.30 / aq-mode=1 / aq-strength=0.70 / cutree / zone-count=0 / no-strict-cbr / qg-size=32 / no-rc-grain / qpmax=69 / qpmin=0 / no-const-vbv / sar=0 / overscan=0 / videoformat=5 / range=0 / colorprim=1 / transfer=1 / colormatrix=1 / chromaloc=0 / display-window=0 / max-cll=0,0 / min-luma=0 / max-luma=1023 / log2-max-poc-lsb=8 / vui-timing-info / vui-hrd-info / slices=1 / no-opt-qp-pps / no-opt-ref-list-length-pps / no-multi-pass-opt-rps / scenecut-bias=0.05 / no-opt-cu-delta-qp / no-aq-motion / no-hdr / no-hdr-opt / no-dhdr10-opt / no-idr-recovery-sei / analysis-reuse-level=5 / scale-factor=0 / refine-intra=0 / refine-inter=0 / refine-mv=0 / no-limit-sao / ctu-info=0 / no-lowpass-dct / refine-mv-type=0 / copy-pic=1 / max-ausize-factor=1.0 / no-dynamic-refine / no-single-sei
Default : Да
Forced : Да
Цветовой диапазон : Limited
Основные цвета : BT.709
Характеристики трансфера : BT.709
Коэффициенты матрицы : BT.709
 

Аудио

Идентификатор : 2
Формат : AAC
Формат/Информация : Advanced Audio Codec
Профиль формата : LC
Идентификатор кодека : A_AAC-2
Продолжительность : 1 ч. 53 м.
Битрейт : 394 Кбит/сек
Каналы : 6 каналов
Расположение каналов : Front: L C R, Side: L R, LFE
Частота : 48,0 КГц
Частота кадров : 46,875 кадров/сек (1024 SPF)
Метод сжатия : С потерями
Задержка видео : 20 мс.
Размер потока : 320 Мбайт (12%)
Default : Да
Forced : Нет
 
 
 
Размер: 2.52Гб
Категория: Фильмы [HEVC] | Добавил: DSIO
Просмотров: 244 | Загрузок: 91 | Комментарии: 4 | Рейтинг: 5.0/3
Всего комментариев: 4
avatar
1
Год в заголовке указан 2013, а должно быть 2007
avatar
0
2
Спасибо, исправил
avatar
3
а почему LQ? 4es3y
avatar
1
4
Ну хз, по правилам сайта если фильм весит меньше 3гб, то в названии пишется LQ.
Лично я считаю что это не совсем корректно, так как можно добавить несколько аудио дорог, так чтобы вышло больше 3гб и будет уже не LQ. Или скажем если фильм длится 50 минут то вероятность что на нем появится пометка LQ будет намного выше чем у фильма который длится 4 часа, даже если у последнего качество будет сильно хуже.

В любом случае битрейт в данном релизе не сильно высокий, так что в данном случае всё честно.
avatar