Плакса / Cry-Baby (1990) BDRip 1080p LQ [HEVC] 10bit
17.07.2018, 11:38
Плакса / Cry-Baby

Год: 1990
Страна(студия): США
Жанр: Мюзикл, мелодрама, комедия
Продолжительность: 01:24:51
Перевод: Многоголосый закадровый

Режиссер: Джон Уотерс
В ролях: Джонни Депп, Эми Локейн, Сьюзен Тиррел, Полли Берген, Игги Поп, Рики Лэйк, Трейси Лордс, Ким МакГуайр, Даррен Э. Берроуз, Стефен Мэйлер
Описание: Уэйд «Плакса» Уокер самый беззастенчивый и наглый хулиган в школе. Его умопомрачительная способность ронять одну единственную слезу доводит до исступления всех девчонок, особенно красавицу - Эллисон. Вскоре Эллисон попадает в окружение «Плаксы» и его дружков и с жадностью постигает мир рок-музыки и бешеных автомобильных гонок.
Качество: BDRip 1080p Формат: MKV
Видео: H.265 L5.1High 1920x1040 23,976 кадр/сек 4545 Кбит/сек 10bit
Аудио: QAAC Русская 2 канала(ов) 328 Кбит/сек 48,0 КГц
MediaInfo

Общее

Уникальный идентификатор : 318118120870705780431540132007255258341 (0xEF53524CC1A0814AE2453A3ADA20B4E5)
Полное имя : Z:\Downloads\Плакса - Cry Baby (1990)(1080p).mkv
Формат : Matroska
Версия формата : Version 4 / Version 2
Размер файла : 2,89 Гбайт
Продолжительность : 1 ч. 24 м.
Общий поток : 4876 Кбит/сек
Дата кодирования : UTC 2018-07-17 08:22:38
Программа кодирования : mkvmerge v25.0.0 ('Prog Noir') 64-bit
Библиотека кодирования : libebml v1.3.6 + libmatroska v1.4.9
Обложка : Yes
Attachments : cover.jpg
 

Видео

Идентификатор : 1
Формат : HEVC
Формат/Информация : High Efficiency Video Coding
Профиль формата : Main 10@L5.1@High
Идентификатор кодека : V_MPEGH/ISO/HEVC
Продолжительность : 1 ч. 24 м.
Битрейт : 4545 Кбит/сек
Ширина : 1920 пикселей
Высота : 1040 пикселей
Соотношение сторон : 1,85:1
Режим частоты кадров : Постоянный
Частота кадров : 23,976 (24000/1001) кадра/сек
Цветовое пространство : YUV
Субдискретизация насыщенности : 4:2:0
Битовая глубина : 10 бит
Бит/(Пиксели*Кадры) : 0.095
Размер потока : 2,69 Гбайт (93%)
Библиотека кодирования : x265 2.8+23-656b5b442f0b:[Windows][GCC 7.3.0][64 bit] 10bit
Настройки программы : cpuid=1176575 / frame-threads=4 / numa-pools=16 / wpp / no-pmode / no-pme / no-psnr / no-ssim / log-level=2 / input-csp=1 / input-res=1920x1040 / interlace=0 / total-frames=0 / level-idc=51 / high-tier=1 / uhd-bd=0 / ref=5 / no-allow-non-conformance / no-repeat-headers / annexb / no-aud / no-hrd / info / hash=0 / no-temporal-layers / open-gop / min-keyint=23 / keyint=250 / gop-lookahead=0 / bframes=8 / b-adapt=2 / no-b-pyramid / bframe-bias=0 / rc-lookahead=40 / lookahead-slices=4 / scenecut=40 / radl=0 / no-intra-refresh / ctu=64 / min-cu-size=8 / no-rect / no-amp / max-tu-size=32 / tu-inter-depth=2 / tu-intra-depth=2 / limit-tu=4 / rdoq-level=2 / dynamic-rd=0.00 / no-ssim-rd / signhide / no-tskip / nr-intra=0 / nr-inter=0 / no-constrained-intra / strong-intra-smoothing / max-merge=3 / limit-refs=2 / limit-modes / me=3 / subme=7 / merange=64 / temporal-mvp / weightp / weightb / no-analyze-src-pics / deblock=-3:-3 / no-sao / no-sao-non-deblock / rd=6 / no-early-skip / rskip / no-fast-intra / no-tskip-fast / no-cu-lossless / b-intra / no-splitrd-skip / rdpenalty=0 / psy-rd=2.00 / psy-rdoq=1.00 / no-rd-refine / no-lossless / cbqpoffs=0 / crqpoffs=0 / rc=crf / crf=20.0 / qcomp=0.60 / qpstep=4 / stats-write=0 / stats-read=0 / vbv-maxrate=160000 / vbv-bufsize=160000 / vbv-init=0.9 / crf-max=0.0 / crf-min=0.0 / ipratio=1.10 / pbratio=1.10 / aq-mode=1 / aq-strength=0.70 / cutree / zone-count=0 / no-strict-cbr / qg-size=32 / no-rc-grain / qpmax=69 / qpmin=0 / no-const-vbv / sar=0 / overscan=0 / videoformat=5 / range=0 / colorprim=2 / transfer=2 / colormatrix=1 / chromaloc=0 / display-window=0 / max-cll=0,0 / min-luma=0 / max-luma=1023 / log2-max-poc-lsb=8 / vui-timing-info / vui-hrd-info / slices=1 / no-opt-qp-pps / no-opt-ref-list-length-pps / no-multi-pass-opt-rps / scenecut-bias=0.05 / no-opt-cu-delta-qp / no-aq-motion / no-hdr / no-hdr-opt / no-dhdr10-opt / no-idr-recovery-sei / analysis-reuse-level=5 / scale-factor=0 / refine-intra=0 / refine-inter=0 / refine-mv=0 / no-limit-sao / ctu-info=0 / no-lowpass-dct / refine-mv-type=0 / copy-pic=1 / max-ausize-factor=1.0 / no-dynamic-refine / no-single-sei
Default : Да
Forced : Да
Цветовой диапазон : Limited
Коэффициенты матрицы : BT.709
 

Аудио

Идентификатор : 2
Формат : AAC
Формат/Информация : Advanced Audio Codec
Профиль формата : LC
Идентификатор кодека : A_AAC-2
Продолжительность : 1 ч. 24 м.
Битрейт : 328 Кбит/сек
Каналы : 2 канала
Расположение каналов : Front: L R
Частота : 48,0 КГц
Частота кадров : 46,875 кадров/сек (1024 SPF)
Метод сжатия : С потерями
Задержка видео : 20 мс.
Размер потока : 199 Мбайт (7%)
Язык : Russian
Default : Да
Forced : Нет
 
 
 
Размер: 2.88Гб
Категория: Фильмы [HEVC] | Добавил: DSIO
Просмотров: 275 | Загрузок: 69 | Комментарии: 3 | Рейтинг: 4.3/6
Всего комментариев: 3
avatar
1
Следующим будет Эдвард руки-ножницы?
avatar
0
2
Лично я  не планирую smile
avatar
3
странно что его еще нет на трекере)
avatar