Среда, 24.10.2018, 09:04
HEVC-CLUB
Меню сайта
Категории раздела
Фильмы [HEVC] [1233]
Мультфильмы [HEVC] [95]
Сериалы [HEVC] [64]
Аниме [HEVC] [5]
Документальный [HEVC] [0]
Концерты [HEVC] [45]
UHDRip [HEVC] [35]
Поиск
Мини-чат
Статистика
Онлайн всего: 16
Гостей: 7
Пользователей: 9
[ Полный Список ]

Подглядывающий / Peeping Tom (1960) BDRip 1080p [HEVC] 10bit
21.07.2018, 05:10
Подглядывающий / Peeping Tom

Год: 1960
Страна(студия): Великобритания
Жанр: Ужасы, комедия
Продолжительность: 01:41:39
Перевод: Многоголосый закадровый

Режиссер: Майкл Пауэлл
В ролях: Карлхайнц Бём, Мойра Ширер, Анна Мэсси, Максин Одли, Бренда Брюс, Майлз Маллесон, Эзмонд Найт, Мартин Миллер, Майкл Гудлифф, Джек Уотсон
Описание: Молодой человек Марк снимает на кинокамеру проститутку. Он снимает искаженное ужасом лицо, когда камера приближается к ней. В это время из ножки штатива внезапно высовывается пика и убивает ее. Позднее он снимает момент, когда труп проститутки забирает полиция. Марк фотографирует обнаженных молодых женщин в студии, расположенной под бутиком, владелец которого приторговывает фотографиями голых женщин…
Качество: BDRip 1080p Формат: MKV
Видео: H.265 L5.1High 19784x1080 23,976 кадр/сек 4848 Кбит/сек 10bit
Аудио: AC-3 Русская 2 канала(ов) 192 Кбит/сек 48,0 КГц
MediaInfo

Общее

Уникальный идентификатор : 215042944615232549668324795460347631659 (0xA1C7C3BF3582DD576916ED6A8CBE182B)
Полное имя : Z:\Downloads\Подглядывающий - Peeping Tom (1960)(1080p).mkv
Формат : Matroska
Версия формата : Version 4 / Version 2
Размер файла : 3,58 Гбайт
Продолжительность : 1 ч. 41 м.
Общий поток : 5042 Кбит/сек
Название фильма : Peeping.Tom.1960.1080p.Bluray.AVC.Remux
Дата кодирования : UTC 2018-07-20 17:45:47
Программа кодирования : mkvmerge v25.0.0 ('Prog Noir') 64-bit
Библиотека кодирования : libebml v1.3.6 + libmatroska v1.4.9
Обложка : Yes
Attachments : cover.jpg
Encoding Gui : Hybrid 2018.06.23.1
 

Видео

Идентификатор : 1
Формат : HEVC
Формат/Информация : High Efficiency Video Coding
Профиль формата : Main 10@L5.1@High
Идентификатор кодека : V_MPEGH/ISO/HEVC
Продолжительность : 1 ч. 41 м.
Битрейт : 4848 Кбит/сек
Ширина : 1784 пикселя
Высота : 1080 пикселей
Соотношение сторон : 5:3
Режим частоты кадров : Постоянный
Частота кадров : 24,000 кадра/сек
Цветовое пространство : YUV
Субдискретизация насыщенности : 4:2:0
Битовая глубина : 10 бит
Бит/(Пиксели*Кадры) : 0.105
Размер потока : 3,44 Гбайт (96%)
Библиотека кодирования : x265 2.8+23-656b5b442f0b:[Windows][GCC 7.3.0][64 bit] 10bit
Настройки программы : cpuid=1176575 / frame-threads=4 / numa-pools=16 / wpp / no-pmode / no-pme / no-psnr / no-ssim / log-level=2 / input-csp=1 / input-res=1784x1080 / interlace=0 / total-frames=0 / level-idc=51 / high-tier=1 / uhd-bd=0 / ref=5 / no-allow-non-conformance / no-repeat-headers / annexb / no-aud / no-hrd / info / hash=0 / no-temporal-layers / open-gop / min-keyint=24 / keyint=250 / gop-lookahead=0 / bframes=8 / b-adapt=2 / no-b-pyramid / bframe-bias=0 / rc-lookahead=40 / lookahead-slices=4 / scenecut=40 / radl=0 / no-intra-refresh / ctu=64 / min-cu-size=8 / no-rect / no-amp / max-tu-size=32 / tu-inter-depth=2 / tu-intra-depth=2 / limit-tu=4 / rdoq-level=2 / dynamic-rd=0.00 / no-ssim-rd / signhide / no-tskip / nr-intra=0 / nr-inter=0 / no-constrained-intra / strong-intra-smoothing / max-merge=3 / limit-refs=2 / limit-modes / me=3 / subme=7 / merange=64 / temporal-mvp / weightp / weightb / no-analyze-src-pics / deblock=-3:-3 / no-sao / no-sao-non-deblock / rd=6 / no-early-skip / rskip / no-fast-intra / no-tskip-fast / no-cu-lossless / b-intra / no-splitrd-skip / rdpenalty=0 / psy-rd=2.00 / psy-rdoq=1.00 / no-rd-refine / no-lossless / cbqpoffs=0 / crqpoffs=0 / rc=crf / crf=20.0 / qcomp=0.60 / qpstep=4 / stats-write=0 / stats-read=0 / vbv-maxrate=160000 / vbv-bufsize=160000 / vbv-init=0.9 / crf-max=0.0 / crf-min=0.0 / ipratio=1.40 / pbratio=1.30 / aq-mode=1 / aq-strength=0.70 / cutree / zone-count=0 / no-strict-cbr / qg-size=32 / no-rc-grain / qpmax=69 / qpmin=0 / no-const-vbv / sar=0 / overscan=0 / videoformat=5 / range=0 / colorprim=2 / transfer=2 / colormatrix=1 / chromaloc=0 / display-window=0 / max-cll=0,0 / min-luma=0 / max-luma=1023 / log2-max-poc-lsb=8 / vui-timing-info / vui-hrd-info / slices=1 / no-opt-qp-pps / no-opt-ref-list-length-pps / no-multi-pass-opt-rps / scenecut-bias=0.05 / no-opt-cu-delta-qp / no-aq-motion / no-hdr / no-hdr-opt / no-dhdr10-opt / no-idr-recovery-sei / analysis-reuse-level=5 / scale-factor=0 / refine-intra=0 / refine-inter=0 / refine-mv=0 / no-limit-sao / ctu-info=0 / no-lowpass-dct / refine-mv-type=0 / copy-pic=1 / max-ausize-factor=1.0 / no-dynamic-refine / no-single-sei
Default : Да
Forced : Да
Цветовой диапазон : Limited
Коэффициенты матрицы : BT.709
 

Аудио

Идентификатор : 2
Формат : AC-3
Формат/Информация : Audio Coding 3
Идентификатор кодека : A_AC3
Продолжительность : 1 ч. 41 м.
Вид битрейта : Постоянный
Битрейт : 192 Кбит/сек
Каналы : 2 канала
Расположение каналов : Front: L R
Частота : 48,0 КГц
Частота кадров : 31,250 кадров/сек (1536 SPF)
Битовая глубина : 16 бит
Метод сжатия : С потерями
Размер потока : 140 Мбайт (4%)
Заголовок : Петербург - Пятый канал
Язык : Russian
ServiceKind/String : Complete Main
Default : Да
Forced : Нет
 
 
 
Размер: 3.58Гб
Категория: Фильмы [HEVC] | Добавил: DSIO
Просмотров: 297 | Загрузок: 44 | Комментарии: 2 | Рейтинг: 5.0/2
Всего комментариев: 2
avatar
1
Описание - супер!!!
avatar
0
2
Альтернативное описание:
Психологический триллер о серийном убийце-маньяке, ставшем в детстве жертвой экспериментов своего отца в сфере исследований природы страха.
Герой фильма — помощник кинооператора, который убивает своих жертв при
помощи кинокамеры, одновременно снимая процесс на плёнку.
avatar

Профиль
Среда
24.10.2018
09:04


Случайные Новости
Перейти к просмотру Форсаж (2001) BDRip 1080р [HEVC] 10bit
Перейти к просмотру Быстрее пули / Faster (2010) BDRip 1080p [HEVC] 10bit
Перейти к просмотру Морской бой / Battleship (2012) Blu-Ray (2160p)
Перейти к просмотру Это безумный, безумный, безумный, безумный мир / It's a Mad Mad Mad Mad World (1963) BDRip 1080p [HEVC] 10 bit
Перейти к просмотру Мрачные тени / Dark Shadows (2012) BDRip 1080p [HEVC] 10bit
Перейти к просмотру Век Адалин (2015) BDRip 1080p [HEVC] 10 bit

Друзья сайта
      






Copyright MyCorp © 2018

uCoz