Призрак оперы / The Phantom of the Opera [4K Remastered] (2004) BDRip 1080p [HEVC] 10bit
16.07.2018, 08:34
Призрак оперы / The Phantom of the Opera

Год: 2004
Страна(студия): США, Великобритания
Жанр: Триллер, мелодрама, драма, мюзикл
Продолжительность: 02:21:05
Перевод: Дублированный
Субтитры: Форсированные (на песнях)

Режиссер: Джоэл Шумахер
В ролях: Джерард Батлер, Эмми Россам, Патрик Уилсон, Миранда Ричардсон, Минни Драйвер, Киаран Хиндс, Саймон Кэллоу, Виктор МакГуайр, Дженнифер Эллисон, Мюррэй Мелвин
Описание: Таинственный голос взывает к молодой оперной певице Кристине из мрачных недр величественной Парижской оперы. Лишь один человек в труппе знает, что невидимый покровитель и наставник Кристины, наводящий ужас на артистов, — обезображенный гений музыки, влюбленный в юную красавицу. Призрак в маске сделает все, чтобы она стала примадонной сцены, однако у него есть властный соперник — богатый виконт Рауль де Шаньи. Став пленницей любовного треугольника, Кристина должна сделать выбор. Но страсти, что вскружили голову, свирепая ревность и безумная любовь уже вынесли возлюбленным свой немилосердный приговор…
Качество: BDRip 1080p Формат: MKV
Видео: H.265 L5.1High 1920x772 23,976 кадр/сек 2965 Кбит/сек 10bit
Аудио: QAAC Русская 6 канала(ов) 789 Кбит/сек 48,0 КГц
MediaInfo

Общее

Уникальный идентификатор : 23157624437555457275173390671786842896 (0x116BFF0939AA160CAF78B4CF06449B10)
Полное имя : Z:\Downloads\Призрак оперы - The Phantom of the Opera (2004)(1080p).mkv
Формат : Matroska
Версия формата : Version 4 / Version 2
Размер файла : 3,70 Гбайт
Продолжительность : 2 ч. 21 м.
Общий поток : 3756 Кбит/сек
Название фильма : The.Phantom.Of.The.Opera.2004.2160p.UHD.BDRemux @ rutracker.org
Дата кодирования : UTC 2018-07-16 04:28:18
Программа кодирования : mkvmerge v25.0.0 ('Prog Noir') 64-bit
Библиотека кодирования : libebml v1.3.6 + libmatroska v1.4.9
Обложка : Yes
Attachments : cover.jpg / cover
Encoding Gui : Hybrid 2018.06.23.1
 

Видео

Идентификатор : 1
Формат : HEVC
Формат/Информация : High Efficiency Video Coding
Профиль формата : Main 10@L5.1@High
Идентификатор кодека : V_MPEGH/ISO/HEVC
Продолжительность : 2 ч. 21 м.
Битрейт : 2965 Кбит/сек
Ширина : 1920 пикселей
Высота : 772 пикселя
Соотношение сторон : 2,487
Режим частоты кадров : Постоянный
Частота кадров : 23,976 (24000/1001) кадра/сек
Цветовое пространство : YUV
Субдискретизация насыщенности : 4:2:0
Битовая глубина : 10 бит
Бит/(Пиксели*Кадры) : 0.083
Размер потока : 2,92 Гбайт (79%)
Библиотека кодирования : x265 2.8+23-656b5b442f0b:[Windows][GCC 7.3.0][64 bit] 10bit
Настройки программы : cpuid=1176575 / frame-threads=4 / numa-pools=16 / wpp / no-pmode / no-pme / no-psnr / no-ssim / log-level=2 / input-csp=1 / input-res=1920x772 / interlace=0 / total-frames=0 / level-idc=51 / high-tier=1 / uhd-bd=0 / ref=5 / no-allow-non-conformance / no-repeat-headers / annexb / no-aud / no-hrd / info / hash=0 / no-temporal-layers / open-gop / min-keyint=23 / keyint=250 / gop-lookahead=0 / bframes=8 / b-adapt=2 / no-b-pyramid / bframe-bias=0 / rc-lookahead=40 / lookahead-slices=4 / scenecut=40 / radl=0 / no-intra-refresh / ctu=64 / min-cu-size=8 / no-rect / no-amp / max-tu-size=32 / tu-inter-depth=2 / tu-intra-depth=2 / limit-tu=4 / rdoq-level=2 / dynamic-rd=0.00 / no-ssim-rd / signhide / no-tskip / nr-intra=0 / nr-inter=0 / no-constrained-intra / strong-intra-smoothing / max-merge=3 / limit-refs=2 / limit-modes / me=3 / subme=7 / merange=64 / temporal-mvp / weightp / weightb / no-analyze-src-pics / deblock=-3:-3 / no-sao / no-sao-non-deblock / rd=6 / no-early-skip / rskip / no-fast-intra / no-tskip-fast / no-cu-lossless / b-intra / no-splitrd-skip / rdpenalty=0 / psy-rd=2.00 / psy-rdoq=1.00 / no-rd-refine / no-lossless / cbqpoffs=0 / crqpoffs=0 / rc=crf / crf=18.0 / qcomp=0.60 / qpstep=4 / stats-write=0 / stats-read=0 / vbv-maxrate=160000 / vbv-bufsize=160000 / vbv-init=0.9 / crf-max=0.0 / crf-min=0.0 / ipratio=1.40 / pbratio=1.30 / aq-mode=1 / aq-strength=0.70 / cutree / zone-count=0 / no-strict-cbr / qg-size=32 / no-rc-grain / qpmax=69 / qpmin=0 / no-const-vbv / sar=0 / overscan=0 / videoformat=5 / range=0 / colorprim=9 / transfer=16 / colormatrix=9 / chromaloc=0 / display-window=0 / max-cll=0,0 / min-luma=0 / max-luma=1023 / log2-max-poc-lsb=8 / vui-timing-info / vui-hrd-info / slices=1 / no-opt-qp-pps / no-opt-ref-list-length-pps / no-multi-pass-opt-rps / scenecut-bias=0.05 / no-opt-cu-delta-qp / no-aq-motion / no-hdr / no-hdr-opt / no-dhdr10-opt / no-idr-recovery-sei / analysis-reuse-level=5 / scale-factor=0 / refine-intra=0 / refine-inter=0 / refine-mv=0 / no-limit-sao / ctu-info=0 / no-lowpass-dct / refine-mv-type=0 / copy-pic=1 / max-ausize-factor=1.0 / no-dynamic-refine / no-single-sei
Default : Да
Forced : Да
Цветовой диапазон : Limited
Основные цвета : BT.2020
Характеристики трансфера : PQ
Коэффициенты матрицы : BT.2020 non-constant
 

Аудио

Идентификатор : 2
Формат : AAC
Формат/Информация : Advanced Audio Codec
Профиль формата : LC
Идентификатор кодека : A_AAC-2
Продолжительность : 2 ч. 21 м.
Битрейт : 789 Кбит/сек
Каналы : 6 каналов
Расположение каналов : Front: L C R, Side: L R, LFE
Частота : 48,0 КГц
Частота кадров : 46,875 кадров/сек (1024 SPF)
Метод сжатия : С потерями
Задержка видео : 20 мс.
Размер потока : 797 Мбайт (21%)
Default : Да
Forced : Нет
 

Текст

Идентификатор : 3
Формат : UTF-8
Идентификатор кодека : S_TEXT/UTF8
Идентификатор кодека/Информация : UTF-8 Plain Text
Продолжительность : 2 ч. 10 м.
Битрейт : 40 бит/сек
ElementCount : 934
Размер потока : 39,0 Кбайт (0%)
Заголовок : Forced
Язык : Russian
Default : Да
Forced : Да
 
 
 
Размер: 3.7Гб
Категория: Фильмы [HEVC] | Добавил: DSIO
Просмотров: 248 | Загрузок: 78 | Комментарии: 3 | Рейтинг: 5.0/4
Всего комментариев: 3
avatar
-1
1
Молодец, опять качать придется AC3 дорогу и не сидеть на раздаче!
avatar
1
2
Лучше DTS smile
avatar
3
а еще лучше Auro-3D 9.1))))
avatar