Профессионал / Le professionnel (1981) BDRip 1080p [HEVC] 10bit
20.07.2018, 12:32
Профессионал / Le professionnel

Год: 1981
Страна(студия): Франция
Жанр: Боевик, триллер, драма, криминал
Продолжительность: 01:47:56
Перевод: Многоголосый закадровый

Режиссер: Жорж Лотнер
В ролях: Жан-Поль Бельмондо, Жан Дезайи, Робер Оссейн, Мишель Бон, Сирил Клер, Жан-Луи Ришар, Сидики Бакаба, Пьер Сентон, Мари-Кристин Декуар, Бернар-Пьер Доннадьё
Описание: Убить президента африканской республики. Такое задание получил секретный агент Жослен Бомон. Внезапно политика изменилась, и французское правительство сдает героя африканским властям. Сбежав с каторги, волк-одиночка возвращается на родину с одной целью: довести задание до конца. А чернокожий лидер как раз приезжает во Францию.
Качество: BDRip 1080p Формат: MKV
Видео: H.265 L5.1High 1808x1080 24 кадр/сек 7448 Кбит/сек 10bit
Аудио 1: AC-3 Русская
(Многоголосая)
2 канала(ов) 192 Кбит/сек 48,0 КГц
Аудио 2: AC-3 Русская
(Многоголосая)
2 канала(ов) 192 Кбит/сек 48,0 КГц
Аудио 3: AC-3 Русская
(Многоголосая)
2 канала(ов) 192 Кбит/сек 48,0 КГц
MediaInfo

Общее

Уникальный идентификатор : 328629559272235975323783883843264701277 (0xF73BC039C20FAB73C22EA0E7E881E35D)
Полное имя : Z:\Downloads\Профессионал - Le professionnel (1981)(1080p).mkv
Формат : Matroska
Версия формата : Version 4 / Version 2
Размер файла : 6,05 Гбайт
Продолжительность : 1 ч. 47 м.
Общий поток : 8023 Кбит/сек
Дата кодирования : UTC 2018-07-20 04:49:16
Программа кодирования : mkvmerge v25.0.0 ('Prog Noir') 64-bit
Библиотека кодирования : libebml v1.3.6 + libmatroska v1.4.9
Обложка : Yes
Attachments : cover.jpg
Encoding Gui : Hybrid 2018.06.23.1
 

Видео

Идентификатор : 1
Формат : HEVC
Формат/Информация : High Efficiency Video Coding
Профиль формата : Main 10@L5.1@High
Идентификатор кодека : V_MPEGH/ISO/HEVC
Продолжительность : 1 ч. 47 м.
Битрейт : 7448 Кбит/сек
Ширина : 1808 пикселей
Высота : 1080 пикселей
Соотношение сторон : 5:3
Режим частоты кадров : Постоянный
Частота кадров : 24,000 кадра/сек
Цветовое пространство : YUV
Субдискретизация насыщенности : 4:2:0
Битовая глубина : 10 бит
Бит/(Пиксели*Кадры) : 0.159
Размер потока : 5,61 Гбайт (93%)
Библиотека кодирования : x265 2.8+23-656b5b442f0b:[Windows][GCC 7.3.0][64 bit] 10bit
Настройки программы : cpuid=1176575 / frame-threads=4 / numa-pools=16 / wpp / no-pmode / no-pme / no-psnr / no-ssim / log-level=2 / input-csp=1 / input-res=1808x1080 / interlace=0 / total-frames=0 / level-idc=51 / high-tier=1 / uhd-bd=0 / ref=5 / no-allow-non-conformance / no-repeat-headers / annexb / no-aud / no-hrd / info / hash=0 / no-temporal-layers / open-gop / min-keyint=24 / keyint=250 / gop-lookahead=0 / bframes=8 / b-adapt=2 / no-b-pyramid / bframe-bias=0 / rc-lookahead=40 / lookahead-slices=4 / scenecut=40 / radl=0 / no-intra-refresh / ctu=64 / min-cu-size=8 / no-rect / no-amp / max-tu-size=32 / tu-inter-depth=2 / tu-intra-depth=2 / limit-tu=4 / rdoq-level=2 / dynamic-rd=0.00 / no-ssim-rd / signhide / no-tskip / nr-intra=0 / nr-inter=0 / no-constrained-intra / strong-intra-smoothing / max-merge=3 / limit-refs=2 / limit-modes / me=3 / subme=7 / merange=64 / temporal-mvp / weightp / weightb / no-analyze-src-pics / deblock=-3:-3 / no-sao / no-sao-non-deblock / rd=6 / no-early-skip / rskip / no-fast-intra / no-tskip-fast / no-cu-lossless / b-intra / no-splitrd-skip / rdpenalty=0 / psy-rd=2.00 / psy-rdoq=1.00 / no-rd-refine / no-lossless / cbqpoffs=0 / crqpoffs=0 / rc=crf / crf=20.0 / qcomp=0.60 / qpstep=4 / stats-write=0 / stats-read=0 / vbv-maxrate=160000 / vbv-bufsize=160000 / vbv-init=0.9 / crf-max=0.0 / crf-min=0.0 / ipratio=1.10 / pbratio=1.10 / aq-mode=1 / aq-strength=0.70 / cutree / zone-count=0 / no-strict-cbr / qg-size=32 / no-rc-grain / qpmax=69 / qpmin=0 / no-const-vbv / sar=0 / overscan=0 / videoformat=5 / range=0 / colorprim=2 / transfer=2 / colormatrix=1 / chromaloc=0 / display-window=0 / max-cll=0,0 / min-luma=0 / max-luma=1023 / log2-max-poc-lsb=8 / vui-timing-info / vui-hrd-info / slices=1 / no-opt-qp-pps / no-opt-ref-list-length-pps / no-multi-pass-opt-rps / scenecut-bias=0.05 / no-opt-cu-delta-qp / no-aq-motion / no-hdr / no-hdr-opt / no-dhdr10-opt / no-idr-recovery-sei / analysis-reuse-level=5 / scale-factor=0 / refine-intra=0 / refine-inter=0 / refine-mv=0 / no-limit-sao / ctu-info=0 / no-lowpass-dct / refine-mv-type=0 / copy-pic=1 / max-ausize-factor=1.0 / no-dynamic-refine / no-single-sei
Default : Да
Forced : Да
Цветовой диапазон : Limited
Коэффициенты матрицы : BT.709
 

Аудио #1

Идентификатор : 2
Формат : AC-3
Формат/Информация : Audio Coding 3
Идентификатор кодека : A_AC3
Продолжительность : 1 ч. 47 м.
Вид битрейта : Постоянный
Битрейт : 192 Кбит/сек
Каналы : 2 канала
Расположение каналов : Front: L R
Частота : 48,0 КГц
Частота кадров : 31,250 кадров/сек (1536 SPF)
Битовая глубина : 16 бит
Метод сжатия : С потерями
Размер потока : 148 Мбайт (2%)
Язык : Russian
ServiceKind/String : Complete Main
Default : Да
Forced : Нет
 

Аудио #2

Идентификатор : 3
Формат : AC-3
Формат/Информация : Audio Coding 3
Идентификатор кодека : A_AC3
Продолжительность : 1 ч. 47 м.
Вид битрейта : Постоянный
Битрейт : 192 Кбит/сек
Каналы : 2 канала
Расположение каналов : Front: L R
Частота : 48,0 КГц
Частота кадров : 31,250 кадров/сек (1536 SPF)
Битовая глубина : 16 бит
Метод сжатия : С потерями
Размер потока : 148 Мбайт (2%)
Язык : Russian
ServiceKind/String : Complete Main
Default : Нет
Forced : Нет
 

Аудио #3

Идентификатор : 4
Формат : AC-3
Формат/Информация : Audio Coding 3
Идентификатор кодека : A_AC3
Продолжительность : 1 ч. 47 м.
Вид битрейта : Постоянный
Битрейт : 192 Кбит/сек
Каналы : 2 канала
Расположение каналов : Front: L R
Частота : 48,0 КГц
Частота кадров : 31,250 кадров/сек (1536 SPF)
Битовая глубина : 16 бит
Метод сжатия : С потерями
Размер потока : 148 Мбайт (2%)
Язык : Russian
ServiceKind/String : Complete Main
Default : Нет
Forced : Нет
 
 
 
Размер: 6.04Гб
Категория: Фильмы [HEVC] | Добавил: DSIO
Просмотров: 319 | Загрузок: 122 | Комментарии: 7 | Рейтинг: 4.4/5
Всего комментариев: 7
avatar
0
1
Спасибо!  v
avatar
2
Спасибо! А не могли бы Вы подсказать авторство русской озвучки. Жаль что отсутствует дубляж.
avatar
1
3
Первая НТВ с Караченцевым. Остальные не помню, какие на слух понравились те и оставил.
Исходник еще не удалил так что специально для вас залил дорожку с Дубляжом на файлообменник.
http://sendfile.su/1431717
avatar
0
4
Спасибо,я уже и скачал и нашел дугой с дубляжем и вставил для себя.Спасибо  еще раз,а то у меня 8битка была.в плане тоже было переделать.а тут готово,скоро сделаю и Труп моего врага.
avatar
5
Ещё раз благодарю за ответ и за дорожку с Дубляжом.
avatar
6
Непривычный для Бельмондо жанр, но он справился, удачный атмосферный фильм, грамотное музыкальное сопрофождение... Один из лучших фильмов Бельмондо.
avatar
7
Спасибо!
avatar