Среда, 24.10.2018, 07:31
HEVC-CLUB
Меню сайта
Категории раздела
Фильмы [HEVC] [1233]
Мультфильмы [HEVC] [95]
Сериалы [HEVC] [64]
Аниме [HEVC] [5]
Документальный [HEVC] [0]
Концерты [HEVC] [45]
UHDRip [HEVC] [35]
Поиск
Мини-чат
Статистика
Онлайн всего: 7
Гостей: 3
Пользователей: 4
[ Полный Список ]

Пускай мертвые лежат в могилах / Non si deve profanare il sonno dei morti (1974) BDRip 1080p [HEVC] 10bit
24.07.2018, 12:30
Пускай мертвые лежат в могилах / Non si deve profanare il sonno dei morti

Год: 1974
Страна(студия): Италия, Испания
Жанр: Ужасы, фантастика
Продолжительность: 01:32:50
Перевод: Авторский (Евгений Гранкин)

Режиссер: Хорхе Грау
В ролях: Кристина Гальбо, Рэй Лавлок, Артур Кеннеди, Альдо Массассо, Джорджо Трестини, Фернандо Ильбек, Вера Друди, Винсент Вега
Описание: В английской глубинке проходят испытания сельскохозяйственного прибора, при помощи излучения ликвидирующего вредителей на полях. Есть «небольшой» побочный эффект: от излучения восстают мертвые. Зомби-каннибалы совершают жестокие убийства, а полицейский инспектор винит в них приезжего мужчину Дэвида.
Качество: BDRip 1080p Формат: MKV
Видео: H.265 L5.1High 1920x1032 23,976 кадр/сек 10.1 Мбит/сек 10bit
Аудио: AC-3 Русская 6 канала(ов) 448 Кбит/сек 48,0 КГц
MediaInfo

Общее

Уникальный идентификатор : 149011459968783035641486216515550420151 (0x701A9033303EE9DE99DE5F1745939CB7)
Полное имя : Z:\Downloads\Пускай мертвые лежат в могилах - Non si deve profanare il sonno dei morti (1974)(1080p).mkv
Формат : Matroska
Версия формата : Version 4 / Version 2
Размер файла : 6,81 Гбайт
Продолжительность : 1 ч. 32 м.
Общий поток : 10,5 Мбит/сек
Название фильма : Non si deve profanare il sonno dei morti (1974)
Дата кодирования : UTC 2018-07-23 22:37:46
Программа кодирования : mkvmerge v25.0.0 ('Prog Noir') 64-bit
Библиотека кодирования : libebml v1.3.6 + libmatroska v1.4.9
Обложка : Yes
Attachments : cover.jpg
Encoding Gui : Hybrid 2018.06.23.1
 

Видео

Идентификатор : 1
Формат : HEVC
Формат/Информация : High Efficiency Video Coding
Профиль формата : Main 10@L5.1@High
Идентификатор кодека : V_MPEGH/ISO/HEVC
Продолжительность : 1 ч. 32 м.
Битрейт : 10,1 Мбит/сек
Ширина : 1920 пикселей
Высота : 1032 пикселя
Соотношение сторон : 1,85:1
Режим частоты кадров : Постоянный
Частота кадров : 23,976 (24000/1001) кадра/сек
Цветовое пространство : YUV
Субдискретизация насыщенности : 4:2:0
Битовая глубина : 10 бит
Бит/(Пиксели*Кадры) : 0.212
Размер потока : 6,52 Гбайт (96%)
Библиотека кодирования : x265 2.8+23-656b5b442f0b:[Windows][GCC 7.3.0][64 bit] 10bit
Настройки программы : cpuid=1176575 / frame-threads=4 / numa-pools=16 / wpp / no-pmode / no-pme / no-psnr / no-ssim / log-level=2 / input-csp=1 / input-res=1920x1032 / interlace=0 / total-frames=0 / level-idc=51 / high-tier=1 / uhd-bd=0 / ref=5 / no-allow-non-conformance / no-repeat-headers / annexb / no-aud / no-hrd / info / hash=0 / no-temporal-layers / open-gop / min-keyint=23 / keyint=250 / gop-lookahead=0 / bframes=8 / b-adapt=2 / no-b-pyramid / bframe-bias=0 / rc-lookahead=40 / lookahead-slices=4 / scenecut=40 / radl=0 / no-intra-refresh / ctu=64 / min-cu-size=8 / no-rect / no-amp / max-tu-size=32 / tu-inter-depth=2 / tu-intra-depth=2 / limit-tu=4 / rdoq-level=2 / dynamic-rd=0.00 / no-ssim-rd / signhide / no-tskip / nr-intra=0 / nr-inter=0 / no-constrained-intra / strong-intra-smoothing / max-merge=3 / limit-refs=2 / limit-modes / me=3 / subme=7 / merange=64 / temporal-mvp / weightp / weightb / no-analyze-src-pics / deblock=-3:-3 / no-sao / no-sao-non-deblock / rd=6 / no-early-skip / rskip / no-fast-intra / no-tskip-fast / no-cu-lossless / b-intra / no-splitrd-skip / rdpenalty=0 / psy-rd=2.00 / psy-rdoq=1.00 / no-rd-refine / no-lossless / cbqpoffs=0 / crqpoffs=0 / rc=crf / crf=22.0 / qcomp=0.60 / qpstep=4 / stats-write=0 / stats-read=0 / vbv-maxrate=160000 / vbv-bufsize=160000 / vbv-init=0.9 / crf-max=0.0 / crf-min=0.0 / ipratio=1.10 / pbratio=1.10 / aq-mode=1 / aq-strength=0.70 / cutree / zone-count=0 / no-strict-cbr / qg-size=32 / no-rc-grain / qpmax=69 / qpmin=0 / no-const-vbv / sar=0 / overscan=0 / videoformat=5 / range=0 / colorprim=2 / transfer=2 / colormatrix=1 / chromaloc=0 / display-window=0 / max-cll=0,0 / min-luma=0 / max-luma=1023 / log2-max-poc-lsb=8 / vui-timing-info / vui-hrd-info / slices=1 / no-opt-qp-pps / no-opt-ref-list-length-pps / no-multi-pass-opt-rps / scenecut-bias=0.05 / no-opt-cu-delta-qp / no-aq-motion / no-hdr / no-hdr-opt / no-dhdr10-opt / no-idr-recovery-sei / analysis-reuse-level=5 / scale-factor=0 / refine-intra=0 / refine-inter=0 / refine-mv=0 / no-limit-sao / ctu-info=0 / no-lowpass-dct / refine-mv-type=0 / copy-pic=1 / max-ausize-factor=1.0 / no-dynamic-refine / no-single-sei
Default : Да
Forced : Да
Цветовой диапазон : Limited
Коэффициенты матрицы : BT.709
 

Аудио

Идентификатор : 2
Формат : AC-3
Формат/Информация : Audio Coding 3
Идентификатор кодека : A_AC3
Продолжительность : 1 ч. 32 м.
Вид битрейта : Постоянный
Битрейт : 448 Кбит/сек
Каналы : 6 каналов
Расположение каналов : Front: L C R, Side: L R, LFE
Частота : 48,0 КГц
Частота кадров : 31,250 кадров/сек (1536 SPF)
Битовая глубина : 16 бит
Метод сжатия : С потерями
Размер потока : 297 Мбайт (4%)
Заголовок : AVO [Евгений Гранкин]
Язык : Russian
ServiceKind/String : Complete Main
Default : Да
Forced : Нет
 
 
 
Размер: 6.8Гб
Категория: Фильмы [HEVC] | Добавил: DSIO
Просмотров: 290 | Загрузок: 24 | Рейтинг: 5.0/2
Всего комментариев: 0
avatar

Профиль
Среда
24.10.2018
07:31


Случайные Новости
Перейти к просмотру Робокоп 2 (1990) BDRip 1080p [HEVC] 10 bit
Перейти к просмотру Хэллоуин 2 / Halloween II (1981) BDRip 1080p [HEVC] 10bit
Перейти к просмотру Мрачные тени / Dark Shadows (2012) BDRip 1080p [HEVC] 10bit
Перейти к просмотру Кулинарные поединки Сомы / Shokugeki no Souma (TV-1) [2015] - BDRip 1080p [HEVC] 10 Bit
Перейти к просмотру Оскар / Oscar (1991) BDRip 1080p [HEVC] 10 bit
Перейти к просмотру Робокоп 3 (1993) BDRip 1080p [HEVC] 10 bit

Друзья сайта
      






Copyright MyCorp © 2018

uCoz