Главная » Файлы » Фильмы [HEVC]

Рассвет мертвецов / Dawn Of The Dead [EXTENDED CUT] (1978) BDRip 1080p [HEVC] 10bit
17.05.2018, 13:46
Рассвет мертвецов / Dawn Of The Dead

Год: 1978
Страна(студия): Италия, США
Жанр: Драма, ужасы, триллер
Продолжительность: 02:19:42
Перевод: Многоголосый закадровый, авторский

Режиссер: Джордж А. Ромеро
В ролях: Дэвид Эмджи, Кен Фори, Скотт Х. Рейнигер, Гэйлен Росс, Дэвид Кроуфорд, Дэвид Ерли, Ричард Френс, Ховард Смит, Дэниэл Дитрих, Фред Бэйкер
Описание: Кошмар зомби, начавшийся в фильме «Ночь живых мертвецов», продолжается. Спасшиеся от ужаса мертвых на вертолете, четверо путешественников вынуждены приземлиться на крышу супермаркета. Там они находят пищу, приют и неприятности. Многоэтажный магазин сверху донизу забит глупыми ходячими трупами.
Качество: BDRip 1080p Формат: MKV
Видео: H.265 L5.1High 1920x1080 23,976 кадр/сек 6445 Кбит/сек 10bit
Аудио 1: QAAC Русская
Многоголосая
6 канала(ов) 329 Кбит/сек 48,0 КГц
Аудио 2: AC-3 Русская
Многоголосая
2 канала(ов) 192 Кбит/сек 48,0 КГц
Аудио 3: AC-3 Русская
Авторская
(Визгунов)
2 канала(ов) 192 Кбит/сек 48,0 КГц
Аудио 3: AC-3 Русская
Авторская
(Кашкин)
2 канала(ов) 192 Кбит/сек 48,0 КГц
MediaInfo

Общее

Уникальный идентификатор : 276938746133987242400655741745324199219 (0xD058765F74DAFDF5613C7BB964F18D33)
Полное имя : L:\Downloads\Ночь живых мертвецов - Night of the Living Dead\Рассвет мертвецов - Dawn of the Dead (1978)(1080p).mkv
Формат : Matroska
Версия формата : Version 4 / Version 2
Размер файла : 7,16 Гбайт
Продолжительность : 2 ч. 19 м.
Общий поток : 7340 Кбит/сек
Дата кодирования : UTC 2018-05-17 02:54:09
Программа кодирования : mkvmerge v23.0.0 ('The Bride Said No') 64-bit
Библиотека кодирования : libebml v1.3.6 + libmatroska v1.4.9
Обложка : Yes
Attachments : cover.jpg / 83977_front.jpg
Encoding Gui : Hybrid 2018.05.14.1
 

Видео

Идентификатор : 1
Формат : HEVC
Формат/Информация : High Efficiency Video Coding
Профиль формата : Main 10@L5.1@High
Идентификатор кодека : V_MPEGH/ISO/HEVC
Продолжительность : 2 ч. 19 м.
Битрейт : 6445 Кбит/сек
Ширина : 1920 пикселей
Высота : 1080 пикселей
Соотношение сторон : 16:9
Режим частоты кадров : Постоянный
Частота кадров : 23,976 (24000/1001) кадра/сек
Цветовое пространство : YUV
Субдискретизация насыщенности : 4:2:0
Битовая глубина : 10 бит
Бит/(Пиксели*Кадры) : 0.130
Размер потока : 6,28 Гбайт (88%)
Библиотека кодирования : x265 2.7+348-0968a46d6ba4:[Windows][GCC 7.3.0][64 bit] 10bit
Настройки программы : cpuid=1111039 / frame-threads=4 / numa-pools=16 / wpp / no-pmode / no-pme / no-psnr / no-ssim / log-level=2 / input-csp=1 / input-res=1920x1080 / interlace=0 / total-frames=0 / level-idc=51 / high-tier=1 / uhd-bd=0 / ref=5 / no-allow-non-conformance / no-repeat-headers / annexb / no-aud / no-hrd / info / hash=0 / no-temporal-layers / open-gop / min-keyint=23 / keyint=240 / gop-lookahead=0 / bframes=8 / b-adapt=2 / no-b-pyramid / bframe-bias=0 / rc-lookahead=40 / lookahead-slices=5 / scenecut=40 / radl=0 / no-intra-refresh / ctu=64 / min-cu-size=8 / no-rect / no-amp / max-tu-size=32 / tu-inter-depth=4 / tu-intra-depth=4 / limit-tu=1 / rdoq-level=2 / dynamic-rd=0.00 / no-ssim-rd / signhide / no-tskip / nr-intra=0 / nr-inter=0 / no-constrained-intra / no-strong-intra-smoothing / max-merge=3 / limit-refs=3 / limit-modes / me=3 / subme=6 / merange=64 / temporal-mvp / weightp / weightb / no-analyze-src-pics / no-deblock / sao / no-sao-non-deblock / rd=3 / no-early-skip / rskip / no-fast-intra / no-tskip-fast / no-cu-lossless / no-b-intra / no-splitrd-skip / rdpenalty=0 / psy-rd=2.00 / psy-rdoq=1.00 / no-rd-refine / no-lossless / cbqpoffs=0 / crqpoffs=0 / rc=crf / crf=20.0 / qcomp=0.60 / qpstep=4 / stats-write=0 / stats-read=0 / vbv-maxrate=160000 / vbv-bufsize=160000 / vbv-init=0.9 / crf-max=0.0 / crf-min=0.0 / ipratio=1.10 / pbratio=1.10 / aq-mode=1 / aq-strength=0.70 / cutree / zone-count=0 / no-strict-cbr / qg-size=32 / no-rc-grain / qpmax=69 / qpmin=0 / no-const-vbv / sar=0 / overscan=0 / videoformat=5 / range=0 / colorprim=1 / transfer=1 / colormatrix=1 / chromaloc=0 / display-window=0 / max-cll=0,0 / min-luma=0 / max-luma=1023 / log2-max-poc-lsb=8 / vui-timing-info / vui-hrd-info / slices=1 / opt-qp-pps / opt-ref-list-length-pps / no-multi-pass-opt-rps / scenecut-bias=0.05 / no-opt-cu-delta-qp / no-aq-motion / no-hdr / no-hdr-opt / no-dhdr10-opt / no-idr-recovery-sei / analysis-reuse-level=5 / scale-factor=0 / refine-intra=0 / refine-inter=0 / refine-mv=0 / no-limit-sao / ctu-info=0 / no-lowpass-dct / refine-mv-type=0 / copy-pic=1 / max-ausize-factor=1.0 / no-dynamic-refine / no-single-sei
Язык : English
Default : Да
Forced : Да
Цветовой диапазон : Limited
Основные цвета : BT.709
Характеристики трансфера : BT.709
Коэффициенты матрицы : BT.709
 

Аудио #1

Идентификатор : 2
Формат : AAC
Формат/Информация : Advanced Audio Codec
Профиль формата : LC
Идентификатор кодека : A_AAC-2
Продолжительность : 2 ч. 19 м.
Битрейт : 329 Кбит/сек
Каналы : 6 каналов
Расположение каналов : Front: L C R, Side: L R, LFE
Частота : 48,0 КГц
Частота кадров : 46,875 кадров/сек (1024 SPF)
Метод сжатия : С потерями
Задержка видео : 20 мс.
Размер потока : 328 Мбайт (4%)
Заголовок : MVO AAC 320 kBit/s 48 kHz 5.1
Язык : Russian
Default : Да
Forced : Нет
 

Аудио #2

Идентификатор : 3
Формат : AC-3
Формат/Информация : Audio Coding 3
Идентификатор кодека : A_AC3
Продолжительность : 2 ч. 19 м.
Вид битрейта : Постоянный
Битрейт : 192 Кбит/сек
Каналы : 2 канала
Расположение каналов : Front: L R
Частота : 48,0 КГц
Частота кадров : 31,250 кадров/сек (1536 SPF)
Битовая глубина : 16 бит
Метод сжатия : С потерями
Размер потока : 191 Мбайт (3%)
Заголовок : VO Tycoon AC3 192 kBit/s 48 kHz 2.0 DD
Язык : Russian
ServiceKind/String : Complete Main
Default : Нет
Forced : Нет
 

Аудио #3

Идентификатор : 4
Формат : AC-3
Формат/Информация : Audio Coding 3
Идентификатор кодека : A_AC3
Продолжительность : 2 ч. 19 м.
Вид битрейта : Постоянный
Битрейт : 192 Кбит/сек
Каналы : 2 канала
Расположение каналов : Front: L R
Частота : 48,0 КГц
Частота кадров : 31,250 кадров/сек (1536 SPF)
Битовая глубина : 16 бит
Метод сжатия : С потерями
Размер потока : 192 Мбайт (3%)
Заголовок : AVO Визгунов AC3 192 kBit/s 48 kHz 2.0 DD
Язык : Russian
ServiceKind/String : Complete Main
Default : Нет
Forced : Нет
 

Аудио #4

Идентификатор : 5
Формат : AC-3
Формат/Информация : Audio Coding 3
Идентификатор кодека : A_AC3
Продолжительность : 2 ч. 19 м.
Вид битрейта : Постоянный
Битрейт : 192 Кбит/сек
Каналы : 2 канала
Расположение каналов : Front: L R
Частота : 48,0 КГц
Частота кадров : 31,250 кадров/сек (1536 SPF)
Битовая глубина : 16 бит
Метод сжатия : С потерями
Размер потока : 192 Мбайт (3%)
Заголовок : AVO Кашкин AC3 192 kBit/s 48 kHz 2.0 DD
Язык : Russian
ServiceKind/String : Complete Main
Default : Нет
Forced : Нет
 
 
 
Размер: 7.16Гб
Категория: Фильмы [HEVC] | Добавил: DSIO
Просмотров: 211 | Загрузок: 37 | Комментарии: 8 | Рейтинг: 4.8/5
Всего комментариев: 8
avatar
0
1
Заказал: extrenniya
avatar
0
2
Мне больше всё-таки "День мертвецов" (Ромеровский) нравится
killed
avatar
0
3
Уже готов, завтра выложу smile
avatar
0
4
А Лучио Фульчи не будешь делать?
avatar
0
5
В принципе можно, просто я боюсь если начну делать Италию то мне будет трудно остановиться. Половина жестких завалено Лучио Фульчи, Дарио Ардженто, Ламберто Бава, Джо д'Амато, Руджеро Деодато, Умберто Ленци, Марио Бава...

Хотелось бы к этому всему прийти, но чуть позже, а то опять пойду битрейты по 12-15Мбит, ибо я не знаю как можно жать такие шедевры как Суспирия, Кроваво красное, Феномена, Демоны, Птица с хрустальным оперением...

Чет меня понесло...нельзя при мне упоминать Итальянское кино xD
avatar
0
6
Да... чувствую себя униженным bag 
Я кроме Фульчи из этого списка никого не знаю biggrin
avatar
0
7
Ну Дарио Ардженто это легенда, это обязательно к ознакомлению, я в его честь даже кота назвал. Марио Бава известен тем что создал жанр Джиалло, который в последствий перерос на западе в жанр Слэшер. Ламберто Бава (сын Марио Бава) больше всего знаменит на постсоветском пространстве фильмом/сериалом в 5 частях Фантагиро/Пещера золотой розы который показывали по ОРТ/REN-TV в середине 90х и начале 2000х, а плане ужасов его Демоны просто восторг!

Еще Микеле Соави забыл, тоже знатный режиссер, жалко всего 4 фильма снял, мог стать легендой не меньше всех перечисленных, если не больше.
avatar
0
8
Если уж на то пошло, то кстати Рассвет Мертвецов как раз Дарио Ардженто на половину финансировал, так же он подбирал музыку и много чего для фильма делал, например занимался прокатом фильма в Италии.
avatar