Главная » Файлы » Фильмы [HEVC]

Разделитель / The Divide (2011) BDRip 1080p [HEVC] 10bit
02.07.2018, 15:44
Разделитель / The Divide

Год: 2011
Страна(студия): Франция
Жанр: Ужасы, фантастика, триллер
Продолжительность: 02:02:14
Перевод: Многоголосый закадровый

Режиссер: Ксавьер Генс
В ролях: Лорен Джерман, Майкл Бьен, Майло Вентимилья, Кортни Б. Вэнс, Эштон Холмс, Розанна Аркетт, Иван Гонзалез, Майкл Эклунд
Описание: События фильма разворачиваются в подвале одного из зданий в Нью-Йорке, который стал своего рода спасательным бункером для восьмерых людей, когда город был разрушен в результате мощного взрыва неизвестного происхождения.
Качество: BDRip 1080p Формат: MKV
Видео: H.265 L5.1High 1920x800 23,976 кадр/сек 15,8 Мбит/сек 10bit
Аудио: QAAC Русская 8 канала(ов) 640 Кбит/сек 48,0 КГц
MediaInfo

Общее

Уникальный идентификатор : 263251095486333724601506225682055593945 (0xC60C5117C5B91BF4496FD3D7965E7FD9)
Полное имя : Z:\Downloads\Разделитель - The Divide (2011)(1080p).mkv
Формат : Matroska
Версия формата : Version 4 / Version 2
Размер файла : 14,0 Гбайт
Продолжительность : 2 ч. 2 м.
Общий поток : 16,4 Мбит/сек
Дата кодирования : UTC 2018-06-24 17:36:31
Программа кодирования : mkvmerge v23.0.0 ('The Bride Said No') 64-bit
Библиотека кодирования : libebml v1.3.6 + libmatroska v1.4.9
Обложка : Yes
Attachments : cover.jpg
Encoding Gui : Hybrid 2018.06.23.1
 

Видео

Идентификатор : 1
Формат : HEVC
Формат/Информация : High Efficiency Video Coding
Профиль формата : Main 10@L5.1@High
Идентификатор кодека : V_MPEGH/ISO/HEVC
Продолжительность : 2 ч. 2 м.
Битрейт : 15,8 Мбит/сек
Ширина : 1920 пикселей
Высота : 800 пикселей
Соотношение сторон : 2,40:1
Режим частоты кадров : Постоянный
Частота кадров : 23,976 (24000/1001) кадра/сек
Цветовое пространство : YUV
Субдискретизация насыщенности : 4:2:0
Битовая глубина : 10 бит
Бит/(Пиксели*Кадры) : 0.428
Размер потока : 13,5 Гбайт (96%)
Библиотека кодирования : x265 2.8+12-9cde2c278464:[Windows][GCC 7.3.0][64 bit] 10bit
Настройки программы : cpuid=1176575 / frame-threads=4 / wpp / no-pmode / no-pme / no-psnr / no-ssim / log-level=2 / input-csp=1 / input-res=1920x800 / interlace=0 / total-frames=0 / level-idc=51 / high-tier=1 / uhd-bd=0 / ref=4 / no-allow-non-conformance / no-repeat-headers / annexb / no-aud / no-hrd / info / hash=0 / no-temporal-layers / open-gop / min-keyint=23 / keyint=250 / gop-lookahead=0 / bframes=8 / b-adapt=2 / no-b-pyramid / bframe-bias=0 / rc-lookahead=40 / lookahead-slices=4 / scenecut=40 / radl=0 / no-intra-refresh / ctu=64 / min-cu-size=8 / no-rect / no-amp / max-tu-size=32 / tu-inter-depth=2 / tu-intra-depth=2 / limit-tu=4 / rdoq-level=2 / dynamic-rd=0.00 / no-ssim-rd / signhide / no-tskip / nr-intra=0 / nr-inter=0 / no-constrained-intra / strong-intra-smoothing / max-merge=3 / limit-refs=2 / limit-modes / me=3 / subme=7 / merange=64 / temporal-mvp / weightp / weightb / no-analyze-src-pics / deblock=-3:-3 / no-sao / no-sao-non-deblock / rd=6 / no-early-skip / rskip / no-fast-intra / no-tskip-fast / no-cu-lossless / b-intra / no-splitrd-skip / rdpenalty=0 / psy-rd=2.00 / psy-rdoq=1.00 / no-rd-refine / no-lossless / cbqpoffs=0 / crqpoffs=0 / rc=crf / crf=18.0 / qcomp=0.60 / qpstep=4 / stats-write=0 / stats-read=0 / vbv-maxrate=160000 / vbv-bufsize=160000 / vbv-init=0.9 / crf-max=0.0 / crf-min=0.0 / ipratio=1.10 / pbratio=1.10 / aq-mode=1 / aq-strength=0.70 / cutree / zone-count=0 / no-strict-cbr / qg-size=32 / no-rc-grain / qpmax=69 / qpmin=0 / no-const-vbv / sar=1 / overscan=0 / videoformat=5 / range=0 / colorprim=1 / transfer=1 / colormatrix=1 / chromaloc=0 / display-window=0 / max-cll=0,0 / min-luma=0 / max-luma=1023 / log2-max-poc-lsb=8 / vui-timing-info / vui-hrd-info / slices=1 / no-opt-qp-pps / no-opt-ref-list-length-pps / no-multi-pass-opt-rps / scenecut-bias=0.05 / no-opt-cu-delta-qp / no-aq-motion / no-hdr / no-hdr-opt / no-dhdr10-opt / no-idr-recovery-sei / analysis-reuse-level=5 / scale-factor=0 / refine-intra=0 / refine-inter=0 / refine-mv=0 / no-limit-sao / ctu-info=0 / no-lowpass-dct / refine-mv-type=0 / copy-pic=1 / max-ausize-factor=1.0 / no-dynamic-refine / no-single-sei
Default : Да
Forced : Да
Цветовой диапазон : Limited
Основные цвета : BT.709
Характеристики трансфера : BT.709
Коэффициенты матрицы : BT.709
 

Аудио

Идентификатор : 2
Формат : AAC
Формат/Информация : Advanced Audio Codec
Профиль формата : LC
Идентификатор кодека : A_AAC-2
Продолжительность : 2 ч. 2 м.
Битрейт : 640 Кбит/сек
Каналы : 8 каналов
Расположение каналов : Front: L C R, Side: L R, Back: L R, LFE
Частота : 48,0 КГц
Частота кадров : 46,875 кадров/сек (1024 SPF)
Метод сжатия : С потерями
Задержка видео : 20 мс.
Размер потока : 559 Мбайт (4%)
Default : Да
Forced : Нет
 
 
 
Размер: 14Гб
Категория: Фильмы [HEVC] | Добавил: DSIO
Просмотров: 366 | Загрузок: 78 | Комментарии: 13 | Рейтинг: 5.0/2
Всего комментариев: 13
avatar
1
Да зачем ты этот звук добавляешь,специально?
avatar
0
2
Делаю исключительно для себя.
Просто делюсь, могу не делиться.
Не хочу снижать качество просто из-за того что у кого то что-то не идёт, с таким же успехом можно писать комментарии - не делайте в h.265, у меня видеомагнитофон его не поддерживает, делайте в Xvid.
Без обид.
avatar
11
Я тебя услышал.
avatar
0
3
Дружище подскажи что за железный плеер у тебя что умеет правильно разложить поканально звук в формате qaac?
avatar
0
4
1. PC
2. У меня стерео
avatar
0
5
Не в курсе, железные медиаплееры могут его кушать. Потому как у меня что Rombica что Iconbit не раскидывают звук. Идет PCM на 2 канала.
avatar
0
6
Могу предположить что приставки от Apple должны дружить с qAAC учитывая что этот формат ими разработан.
avatar
0
7
Я тебя понял. Спасибо. Для коллекции железного хлама придется приобрести и от Apple игрушку)))
avatar
0
8
Достаточно комп к телеку по hdmi подцепить, надёжнее всего...
avatar
0
10
Ну да. Ты прав. Был у меня как-то такой кабель. Кому дал не помню и никто не сознаётся.
avatar
0
9
Да и к тому же с qAAC делаю рипы только я, а как известно я не умею распоряжаться возможностями формата hevc и мои рипы качать в принципе не стоит
avatar
12
Спасибо!
avatar
13
не хочу никого обидеть, но зачем делать в мудреном кодеке пытаясь сохранить качество звука, если все равно смотришь на телике и в стерео, тогда пойдет самый простой мр3.
и зачем делать h265 более 15000kbps, вот этого я вообще не понимаю.
avatar