Главная » Файлы » Фильмы [HEVC]

Синий бархат / Blue Velvet (1986) BDRip 1080p [HEVC] 10bit
07.07.2018, 15:46
Синий бархат / Blue Velvet

Год: 1986
Страна(студия): США
Жанр: Триллер, драма
Продолжительность: 02:00:32
Перевод: Многоголосый закадровый

Режиссер: Дэвид Линч
В ролях: Кайл МакЛаклэн, Изабелла Росселлини, Деннис Хоппер, Лора Дерн, Хоуп Лэнг, Дин Стокуэлл, Брэд Дуриф, Кен Стовиц, Фрэнсис Бэй, Присцилла Пойнтер, Джордж Дикерсон
Описание: В связи с болезнью отца, Джеффри Бомон был вынужден на время оставить столичный колледж и вернуться в родной городок. Вскоре он находит в поле отрезанное человеческое ухо. Неудовлетворённый одним лишь энтузиазмом полиции, он начинает собственное несанкционированное расследование, в котором ему помогает дочь полицейского детектива. Они с удивлением обнаруживают, что в их тихом безмятежном городке существует преступное подполье. Следы ведут к прекрасной и загадочной женщине и к её жестокому партнёру-наркоторговцу. Между юношей и женщиной завязывается странная нездоровая любовь, при том что он неравнодушен также и к дочери детектива...
Качество: BDRip 1080p Формат: MKV
Видео: H.265 L5.1High 1920x816 23,976 кадр/сек 6244 Кбит/сек 10bit
Аудио: AC-3 Русская 6 канала(ов) 384 Кбит/сек 48,0 КГц
MediaInfo

Общее

Уникальный идентификатор : 140147577076390041976129527517299295191 (0x696F710845AEF96FC8B252C6742343D7)
Полное имя : Z:\Downloads\Синий бархат - Blue Velvet (1986)(1080p).mkv
Формат : Matroska
Версия формата : Version 4 / Version 2
Размер файла : 5,58 Гбайт
Продолжительность : 2 ч. 0 м.
Общий поток : 6630 Кбит/сек
Дата кодирования : UTC 2018-07-07 12:10:44
Программа кодирования : mkvmerge v23.0.0 ('The Bride Said No') 64-bit
Библиотека кодирования : libebml v1.3.6 + libmatroska v1.4.9
Обложка : Yes
Attachments : cover.jpg
Encoding Gui : Hybrid 2018.06.23.1
 

Видео

Идентификатор : 2
Формат : HEVC
Формат/Информация : High Efficiency Video Coding
Профиль формата : Main 10@L5.1@High
Идентификатор кодека : V_MPEGH/ISO/HEVC
Продолжительность : 2 ч. 0 м.
Битрейт : 6244 Кбит/сек
Ширина : 1920 пикселей
Высота : 816 пикселей
Соотношение сторон : 2,35:1
Режим частоты кадров : Постоянный
Частота кадров : 23,976 (24000/1001) кадра/сек
Цветовое пространство : YUV
Субдискретизация насыщенности : 4:2:0
Битовая глубина : 10 бит
Бит/(Пиксели*Кадры) : 0.166
Размер потока : 5,26 Гбайт (94%)
Библиотека кодирования : x265 2.8+23-656b5b442f0b:[Windows][GCC 7.3.0][64 bit] 10bit
Настройки программы : cpuid=1176575 / frame-threads=4 / numa-pools=16 / wpp / no-pmode / no-pme / no-psnr / no-ssim / log-level=2 / input-csp=1 / input-res=1920x816 / interlace=0 / total-frames=0 / level-idc=51 / high-tier=1 / uhd-bd=0 / ref=5 / no-allow-non-conformance / no-repeat-headers / annexb / no-aud / no-hrd / info / hash=0 / no-temporal-layers / open-gop / min-keyint=23 / keyint=250 / gop-lookahead=0 / bframes=8 / b-adapt=2 / no-b-pyramid / bframe-bias=0 / rc-lookahead=40 / lookahead-slices=4 / scenecut=40 / radl=0 / no-intra-refresh / ctu=64 / min-cu-size=8 / no-rect / no-amp / max-tu-size=32 / tu-inter-depth=2 / tu-intra-depth=2 / limit-tu=4 / rdoq-level=2 / dynamic-rd=0.00 / no-ssim-rd / signhide / no-tskip / nr-intra=0 / nr-inter=0 / no-constrained-intra / strong-intra-smoothing / max-merge=3 / limit-refs=2 / limit-modes / me=3 / subme=7 / merange=64 / temporal-mvp / weightp / weightb / no-analyze-src-pics / deblock=0:0 / no-sao / no-sao-non-deblock / rd=6 / no-early-skip / rskip / no-fast-intra / no-tskip-fast / no-cu-lossless / b-intra / no-splitrd-skip / rdpenalty=0 / psy-rd=2.00 / psy-rdoq=1.00 / no-rd-refine / no-lossless / cbqpoffs=0 / crqpoffs=0 / rc=crf / crf=16.0 / qcomp=0.60 / qpstep=4 / stats-write=0 / stats-read=0 / vbv-maxrate=160000 / vbv-bufsize=160000 / vbv-init=0.9 / crf-max=0.0 / crf-min=0.0 / ipratio=1.40 / pbratio=1.30 / aq-mode=1 / aq-strength=0.70 / cutree / zone-count=0 / no-strict-cbr / qg-size=32 / no-rc-grain / qpmax=69 / qpmin=0 / no-const-vbv / sar=0 / overscan=0 / videoformat=5 / range=0 / colorprim=1 / transfer=1 / colormatrix=1 / chromaloc=0 / display-window=0 / max-cll=0,0 / min-luma=0 / max-luma=1023 / log2-max-poc-lsb=8 / vui-timing-info / vui-hrd-info / slices=1 / no-opt-qp-pps / no-opt-ref-list-length-pps / no-multi-pass-opt-rps / scenecut-bias=0.05 / no-opt-cu-delta-qp / no-aq-motion / no-hdr / no-hdr-opt / no-dhdr10-opt / no-idr-recovery-sei / analysis-reuse-level=5 / scale-factor=0 / refine-intra=0 / refine-inter=0 / refine-mv=0 / no-limit-sao / ctu-info=0 / no-lowpass-dct / refine-mv-type=0 / copy-pic=1 / max-ausize-factor=1.0 / no-dynamic-refine / no-single-sei
Default : Да
Forced : Да
Цветовой диапазон : Limited
Основные цвета : BT.709
Характеристики трансфера : BT.709
Коэффициенты матрицы : BT.709
 

Аудио

Идентификатор : 1
Формат : AC-3
Формат/Информация : Audio Coding 3
Идентификатор кодека : A_AC3
Продолжительность : 2 ч. 0 м.
Вид битрейта : Постоянный
Битрейт : 384 Кбит/сек
Каналы : 6 каналов
Расположение каналов : Front: L C R, Side: L R, LFE
Частота : 48,0 КГц
Частота кадров : 31,250 кадров/сек (1536 SPF)
Битовая глубина : 16 бит
Метод сжатия : С потерями
Размер потока : 331 Мбайт (6%)
ServiceKind/String : Complete Main
Default : Да
Forced : Нет
 
 
 
Размер: 5.58Гб
Категория: Фильмы [HEVC] | Добавил: DSIO
Просмотров: 245 | Загрузок: 61 | Комментарии: 11 | Рейтинг: 4.3/6
Всего комментариев: 11
avatar
0
1
Заказ: Selecon
avatar
2
Главный герой фильма, - Кайл МакЛоклен, так же снимался в фильмах Девида Линча (Дюна 1984 и Твин Пикс 1990- 2017)!
avatar
0
3
Мне с ним больше всего нравится фильм Скрытый враг, правда это не Линчевский фильм.
avatar
4
Не смотрел, спасибо за совет, - надо глянуть!)
avatar
5
По атмосфере, фильм напоминает Попутчик 1986! Я заказывал но, админ мне сказал что на блю-рее его не выходило, хотя в сети есть обложки этого фильма с маркеровкой блю-рей!
avatar
0
6
Оригинальный Попутчик действительно не выходил на блюрее.
На счет обложки, видно что она просто врезана.
Посмотрите на скриншоты, это просто двд апскейл.
Магазинчик видимо просто занимается нае*аловом.
avatar
7
Согласен, скрин размазанный!
avatar
8
Аааа, это про пришельцев где, видел этот фильм!
avatar
9
DSIO
речь идет о фильме Hidden (1987). А на блюрике он как раз и выходил - в 2016 в Испании и в 2017 в США. Кстати, ничего общего с Попутчиком этот фильм не имеет.
За раздачу большущее спасибо!!!
avatar
0
10
Эммм, да я и не отрицал что Скрытый враг выходил на блюрее, и не говорил что он имеет что-то общее с Попутчиком. Вы ничего не перепутали?
avatar
11
Да точно. Я думал, что Selecon имел ввиду фильм Скрытый враг ("По атмосфере, фильм напоминает Попутчик 1986"), а он окавазыется о Синем бархате писал. Но и здесь я с ним не соглашусь.
avatar