Главная » Файлы » Фильмы [HEVC]

Внутреннее пространство / Innerspace (1987) BDRip 1080p [HEVC] 10bit
10.05.2018, 18:02
Внутреннее пространство / Innerspace

Год: 1987
Страна(студия): США
Жанр: Фантастика, комедия, приключения
Продолжительность: 01:59:48
Перевод: Многоголосый закадровый

Режиссер: Джо Данте
В ролях: Деннис Куэйд, Мартин Шорт, Мег Райан, Кевин МакКарти, Фиона Льюис, Вернон Уэллс, Роберт Пикардо, Уэнди Шаал, Гарольд Сильвестр
Описание: Американский пилот лейтенант Так Пендлтон принимает участие в эксперименте, в процессе которого он должен быть очень сильно уменьшен в размерах и в летательном аппарате, похожем на подлодку обследовать внутреннее пространство кролика. Но технотеррористы рушат все планы и похищают шприц, в котором находился миниатюризированый Так. По ошибке содержимое шприца попадает в ипохондрика Джека Паттера. Теперь террористы начинают охотиться за ничего не подозревающим Джеком. Единственная, кто ему может помочь, это девушка Така - журналистка Лидия.
Качество: BDRip 1080p Формат: MKV
Видео: H.265 L5.1High 1920x1080 23,976 кадр/сек 12,8 Мбит/сек 10bit
Аудио: AC-3 Русская 2 канала(ов) 384 Кбит/сек 48,0 КГц
MediaInfo

Общее

Уникальный идентификатор : 119618644618486216466798275149777206880 (0x59FDB684669A5B1FE14D13043085FE60)
Полное имя : Z:\Downloads\Внутреннее пространство - Innerspace (1987)(1080p).mkv
Формат : Matroska
Версия формата : Version 4 / Version 2
Размер файла : 11,0 Гбайт
Продолжительность : 1 ч. 59 м.
Общий поток : 13,2 Мбит/сек
Дата кодирования : UTC 2018-02-15 10:38:17
Программа кодирования : mkvmerge v19.0.0 ('Brave Captain') 64-bit
Библиотека кодирования : libebml v1.3.5 + libmatroska v1.4.8
Обложка : Yes
Attachments : cover.jpg
Encoding Gui : Hybrid 2018.02.03.3
 

Видео

Идентификатор : 1
Формат : HEVC
Формат/Информация : High Efficiency Video Coding
Профиль формата : Main 10@L5.1@High
Идентификатор кодека : V_MPEGH/ISO/HEVC
Продолжительность : 1 ч. 59 м.
Битрейт : 12,8 Мбит/сек
Ширина : 1920 пикселей
Высота : 1080 пикселей
Соотношение сторон : 16:9
Режим частоты кадров : Постоянный
Частота кадров : 23,976 (24000/1001) кадра/сек
Цветовое пространство : YUV
Субдискретизация насыщенности : 4:2:0
Битовая глубина : 10 бит
Бит/(Пиксели*Кадры) : 0.257
Размер потока : 10,7 Гбайт (97%)
Библиотека кодирования : x265 2.6+37-1949157705ce:[Windows][GCC 7.3.0][64 bit] 10bit
Настройки программы : cpuid=1050111 / frame-threads=3 / numa-pools=12 / wpp / no-pmode / no-pme / no-psnr / no-ssim / log-level=2 / input-csp=1 / input-res=1920x1080 / interlace=0 / total-frames=0 / level-idc=51 / high-tier=1 / uhd-bd=0 / ref=5 / no-allow-non-conformance / no-repeat-headers / annexb / no-aud / no-hrd / info / hash=0 / no-temporal-layers / open-gop / min-keyint=23 / keyint=240 / gop-lookahead=0 / bframes=8 / b-adapt=2 / no-b-pyramid / bframe-bias=0 / rc-lookahead=40 / lookahead-slices=4 / scenecut=40 / radl=0 / no-intra-refresh / ctu=64 / min-cu-size=8 / no-rect / no-amp / max-tu-size=32 / tu-inter-depth=4 / tu-intra-depth=4 / limit-tu=1 / rdoq-level=2 / dynamic-rd=0.00 / no-ssim-rd / signhide / no-tskip / nr-intra=0 / nr-inter=0 / no-constrained-intra / no-strong-intra-smoothing / max-merge=3 / limit-refs=3 / limit-modes / me=3 / subme=6 / merange=64 / temporal-mvp / weightp / weightb / no-analyze-src-pics / no-deblock / sao / no-sao-non-deblock / rd=3 / no-early-skip / no-rskip / no-fast-intra / no-tskip-fast / no-cu-lossless / no-b-intra / no-splitrd-skip / rdpenalty=0 / psy-rd=2.00 / psy-rdoq=1.00 / no-rd-refine / no-lossless / cbqpoffs=0 / crqpoffs=0 / rc=crf / crf=20.0 / qcomp=0.60 / qpstep=4 / stats-write=0 / stats-read=0 / vbv-maxrate=50000 / vbv-bufsize=50000 / vbv-init=0.9 / crf-max=0.0 / crf-min=0.0 / ipratio=1.10 / pbratio=1.10 / aq-mode=1 / aq-strength=0.70 / cutree / zone-count=0 / no-strict-cbr / qg-size=32 / no-rc-grain / qpmax=69 / qpmin=16 / no-const-vbv / sar=1 / overscan=0 / videoformat=5 / range=0 / colorprim=1 / transfer=1 / colormatrix=1 / chromaloc=0 / display-window=0 / max-cll=0,0 / min-luma=0 / max-luma=1023 / log2-max-poc-lsb=8 / vui-timing-info / vui-hrd-info / slices=1 / opt-qp-pps / opt-ref-list-length-pps / no-multi-pass-opt-rps / scenecut-bias=0.05 / no-opt-cu-delta-qp / no-aq-motion / no-hdr / no-hdr-opt / no-dhdr10-opt / analysis-reuse-level=5 / scale-factor=0 / refine-intra=0 / refine-inter=0 / refine-mv=0 / no-limit-sao / ctu-info=0 / no-lowpass-dct / refine-mv-type=0 / copy-pic=1
Default : Да
Forced : Да
Цветовой диапазон : Limited
Основные цвета : BT.709
Характеристики трансфера : BT.709
Коэффициенты матрицы : BT.709
 

Аудио

Идентификатор : 2
Формат : AC-3
Формат/Информация : Audio Coding 3
Идентификатор кодека : A_AC3
Продолжительность : 1 ч. 59 м.
Вид битрейта : Постоянный
Битрейт : 384 Кбит/сек
Каналы : 6 каналов
Расположение каналов : Front: L C R, Side: L R, LFE
Частота : 48,0 КГц
Частота кадров : 31,250 кадров/сек (1536 SPF)
Битовая глубина : 16 бит
Метод сжатия : С потерями
Размер потока : 329 Мбайт (3%)
Язык : Russian
ServiceKind/String : Complete Main
Default : Да
Forced : Нет
 
 
 
Размер: 11Гб
Категория: Фильмы [HEVC] | Добавил: DSIO
Просмотров: 286 | Загрузок: 81 | Комментарии: 2 | Рейтинг: 4.3/6
Всего комментариев: 2
avatar
0
1
С возвращением! БРО
avatar
0
2
up
avatar