Главная » Файлы » Фильмы [HEVC]

Возвращение помидоров-убийц / Return of the Killer Tomatoes! (1988) BDRip 1080p [HEVC] 10bit
16.05.2018, 12:58
Возвращение помидоров-убийц / Return of the Killer Tomatoes!

Год: 1988
Страна(студия): США
Жанр: Ужасы, комедия
Продолжительность: 01:38:09
Перевод: Двухголосый закадровый

Режиссер: Джон Де Белло
В ролях: Энтони Старк, Джордж Клуни, Карен Мистал, Стив Лундквист, Джон Эстин, Чарли Джонс, Дж. Стефен Пиис, Майкл Виллани
Описание: Помидоры, превращенные престарелым городским алхимиком доктором Гангрином в суперсущества, сеют смерть и разрушение. Но в этой «помидорной» феерии явно преобладает веселое настроение, и страх, внушаемый сочными плодами, все же не мешает горожанам петь и танцевать. Герой фильма даже влюбляется в женщину, не подозревая о ее «помидорном» происхождении…
Качество: BDRip 1080p Формат: MKV
Видео: H.265 L5.1High 1920x1038 23,976 кадр/сек 5749 Кбит/сек 10bit
Аудио: QAAC Русская 6 канала(ов) 329 Кбит/сек 48,0 КГц
MediaInfo

Общее

Уникальный идентификатор : 81454841243888309502219520954111706917 (0x3D47A1BCC5C927922657D9B3EFCD4725)
Полное имя : Z:\Downloads\Возвращение Помидоров-убийц - Return Of The Killer Tomatoes! (1988).mkv
Формат : Matroska
Версия формата : Version 4 / Version 2
Размер файла : 4,17 Гбайт
Продолжительность : 1 ч. 38 м.
Общий поток : 6080 Кбит/сек
Дата кодирования : UTC 2018-05-15 16:48:05
Программа кодирования : mkvmerge v23.0.0 ('The Bride Said No') 64-bit
Библиотека кодирования : libebml v1.3.6 + libmatroska v1.4.9
Обложка : Yes
Attachments : cover.jpg
Encoding Gui : Hybrid 2018.05.14.1
 

Видео

Идентификатор : 1
Формат : HEVC
Формат/Информация : High Efficiency Video Coding
Профиль формата : Main 10@L5.1@High
Идентификатор кодека : V_MPEGH/ISO/HEVC
Продолжительность : 1 ч. 38 м.
Битрейт : 5749 Кбит/сек
Ширина : 1920 пикселей
Высота : 1038 пикселей
Соотношение сторон : 1,85:1
Режим частоты кадров : Постоянный
Частота кадров : 23,976 (24000/1001) кадра/сек
Цветовое пространство : YUV
Субдискретизация насыщенности : 4:2:0
Битовая глубина : 10 бит
Бит/(Пиксели*Кадры) : 0.120
Размер потока : 3,94 Гбайт (95%)
Библиотека кодирования : x265 2.7+348-0968a46d6ba4:[Windows][GCC 7.3.0][64 bit] 10bit
Настройки программы : cpuid=1111039 / frame-threads=4 / numa-pools=16 / wpp / no-pmode / no-pme / no-psnr / no-ssim / log-level=2 / input-csp=1 / input-res=1920x1038 / interlace=0 / total-frames=0 / level-idc=51 / high-tier=1 / uhd-bd=0 / ref=5 / no-allow-non-conformance / no-repeat-headers / annexb / no-aud / no-hrd / info / hash=0 / no-temporal-layers / open-gop / min-keyint=23 / keyint=240 / gop-lookahead=0 / bframes=8 / b-adapt=2 / no-b-pyramid / bframe-bias=0 / rc-lookahead=40 / lookahead-slices=5 / scenecut=40 / radl=0 / no-intra-refresh / ctu=64 / min-cu-size=8 / no-rect / no-amp / max-tu-size=32 / tu-inter-depth=4 / tu-intra-depth=4 / limit-tu=1 / rdoq-level=2 / dynamic-rd=0.00 / no-ssim-rd / signhide / no-tskip / nr-intra=0 / nr-inter=0 / no-constrained-intra / no-strong-intra-smoothing / max-merge=3 / limit-refs=3 / limit-modes / me=3 / subme=6 / merange=64 / temporal-mvp / weightp / weightb / no-analyze-src-pics / no-deblock / sao / no-sao-non-deblock / rd=3 / no-early-skip / rskip / no-fast-intra / no-tskip-fast / no-cu-lossless / no-b-intra / no-splitrd-skip / rdpenalty=0 / psy-rd=0.00 / psy-rdoq=1.00 / no-rd-refine / no-lossless / cbqpoffs=0 / crqpoffs=0 / rc=crf / crf=22.0 / qcomp=0.60 / qpstep=4 / stats-write=0 / stats-read=0 / vbv-maxrate=160000 / vbv-bufsize=160000 / vbv-init=0.9 / crf-max=0.0 / crf-min=0.0 / ipratio=1.10 / pbratio=1.10 / aq-mode=1 / aq-strength=0.70 / cutree / zone-count=0 / no-strict-cbr / qg-size=32 / no-rc-grain / qpmax=69 / qpmin=0 / no-const-vbv / sar=0 / overscan=0 / videoformat=5 / range=0 / colorprim=1 / transfer=1 / colormatrix=1 / chromaloc=0 / display-window=0 / max-cll=0,0 / min-luma=0 / max-luma=1023 / log2-max-poc-lsb=8 / vui-timing-info / vui-hrd-info / slices=1 / opt-qp-pps / opt-ref-list-length-pps / no-multi-pass-opt-rps / scenecut-bias=0.05 / no-opt-cu-delta-qp / no-aq-motion / no-hdr / no-hdr-opt / no-dhdr10-opt / no-idr-recovery-sei / analysis-reuse-level=5 / scale-factor=0 / refine-intra=0 / refine-inter=0 / refine-mv=0 / no-limit-sao / ctu-info=0 / no-lowpass-dct / refine-mv-type=0 / copy-pic=1 / max-ausize-factor=1.0 / no-dynamic-refine / no-single-sei
Default : Да
Forced : Да
Цветовой диапазон : Limited
Основные цвета : BT.709
Характеристики трансфера : BT.709
Коэффициенты матрицы : BT.709
 

Аудио

Идентификатор : 2
Формат : AAC
Формат/Информация : Advanced Audio Codec
Профиль формата : LC
Идентификатор кодека : A_AAC-2
Продолжительность : 1 ч. 38 м.
Битрейт : 329 Кбит/сек
Каналы : 6 каналов
Расположение каналов : Front: L C R, Side: L R, LFE
Частота : 48,0 КГц
Частота кадров : 46,875 кадров/сек (1024 SPF)
Метод сжатия : С потерями
Задержка видео : 20 мс.
Размер потока : 231 Мбайт (5%)
Язык : Russian
Default : Да
Forced : Нет
 
 
 
Размер: 4.16Гб
Категория: Фильмы [HEVC] | Добавил: DSIO
Просмотров: 241 | Загрузок: 25 | Комментарии: 7 | Рейтинг: 3.5/8
Всего комментариев: 7
avatar
-2
1
Порадовал   respect Спасибо!
Нет в планах сделать  Презерватив-убийца ?
avatar
-2
2
Презерватив-убийца к сожалению на BD не выходил, как и Одноглазый монстр.
Токсичного мстителя как то в сети BD находил, но на раздаче никого не было, вот это обидно...
avatar
-2
3
Бум надеяться что эти фильмы издадут на BD
avatar
0
5
Вааах, спасибо, давненько видать не смотрел на наличие оного
avatar
0
6
Еще бы 4ая часть на BD была бы, было бы вообще шикарно smile
avatar
0
7
чего нет, того нет
avatar