Главная » Файлы » Фильмы [HEVC]

Забери мою душу / My Soul to Take (2010) BDRip 1080p [HEVC] 10bit
04.07.2018, 15:41
Забери мою душу / My Soul to Take

Год: 2010
Страна(студия): США
Жанр: Ужасы, триллер
Продолжительность: 01:47:17
Перевод: Дублированный

Режиссер: Уэс Крэйвен
В ролях: Макс Тириот, Джон Магаро, Дэнзел Уитакер, Ник Лашэвэй, Эмили Миде, Зена Грэй, Полина Ольсцунски, Джереми Чу, Рауль Эспарза, Джессика Хехт
Описание: Сонный городишко Ривертон ожидает исполнения пророчества: серийный убийца должен вернуться на место своих преступлений, чтобы убить семерых детей, родившихся в день его смерти. Но действительно ли маньяк мертв? Или зло переселилось в тело неосторожного подростка, которому теперь предстоит завершить страшную миссию?
Качество: BDRip 1080p Формат: MKV
Видео: H.265 L5.1High 1920x816 23,976 кадр/сек 6177 Кбит/сек 10bit
Аудио: AC-3 Русская 6 канала(ов) 448 Кбит/сек 48,0 КГц
MediaInfo

Общее

Уникальный идентификатор : 302599679223105219574185584589436951272 (0xE3A6940DF1C5DB69F22B17650F451AE8)
Полное имя : Z:\Downloads\Забери мою душу - My Soul To Take (2010)(1080p).mkv
Формат : Matroska
Версия формата : Version 4 / Version 2
Размер файла : 4,96 Гбайт
Продолжительность : 1 ч. 47 м.
Общий поток : 6620 Кбит/сек
Дата кодирования : UTC 2018-07-04 11:54:52
Программа кодирования : mkvmerge v23.0.0 ('The Bride Said No') 64-bit
Библиотека кодирования : libebml v1.3.6 + libmatroska v1.4.9
Обложка : Yes
Attachments : cover.jpg
Encoding Gui : Hybrid 2018.06.23.1
 

Видео

Идентификатор : 1
Формат : HEVC
Формат/Информация : High Efficiency Video Coding
Профиль формата : Main 10@L5.1@High
Идентификатор кодека : V_MPEGH/ISO/HEVC
Продолжительность : 1 ч. 47 м.
Битрейт : 6177 Кбит/сек
Ширина : 1920 пикселей
Высота : 816 пикселей
Соотношение сторон : 2,35:1
Режим частоты кадров : Постоянный
Частота кадров : 23,976 (24000/1001) кадра/сек
Цветовое пространство : YUV
Субдискретизация насыщенности : 4:2:0
Битовая глубина : 10 бит
Бит/(Пиксели*Кадры) : 0.164
Размер потока : 4,62 Гбайт (93%)
Библиотека кодирования : x265 2.8+23-656b5b442f0b:[Windows][GCC 7.3.0][64 bit] 10bit
Настройки программы : cpuid=1176575 / frame-threads=4 / numa-pools=16 / wpp / no-pmode / no-pme / no-psnr / no-ssim / log-level=2 / input-csp=1 / input-res=1920x816 / interlace=0 / total-frames=0 / level-idc=51 / high-tier=1 / uhd-bd=0 / ref=5 / no-allow-non-conformance / no-repeat-headers / annexb / no-aud / no-hrd / info / hash=0 / no-temporal-layers / open-gop / min-keyint=23 / keyint=250 / gop-lookahead=0 / bframes=8 / b-adapt=2 / b-pyramid / bframe-bias=0 / rc-lookahead=40 / lookahead-slices=4 / scenecut=40 / radl=0 / no-intra-refresh / ctu=64 / min-cu-size=8 / no-rect / no-amp / max-tu-size=32 / tu-inter-depth=2 / tu-intra-depth=2 / limit-tu=4 / rdoq-level=2 / dynamic-rd=0.00 / no-ssim-rd / signhide / no-tskip / nr-intra=0 / nr-inter=0 / no-constrained-intra / strong-intra-smoothing / max-merge=3 / limit-refs=2 / limit-modes / me=3 / subme=7 / merange=64 / temporal-mvp / weightp / weightb / no-analyze-src-pics / deblock=-3:-3 / no-sao / no-sao-non-deblock / rd=6 / no-early-skip / rskip / no-fast-intra / no-tskip-fast / no-cu-lossless / b-intra / no-splitrd-skip / rdpenalty=0 / psy-rd=2.00 / psy-rdoq=1.00 / no-rd-refine / no-lossless / cbqpoffs=0 / crqpoffs=0 / rc=crf / crf=18.0 / qcomp=0.60 / qpstep=4 / stats-write=0 / stats-read=0 / vbv-maxrate=160000 / vbv-bufsize=160000 / vbv-init=0.9 / crf-max=0.0 / crf-min=0.0 / ipratio=1.40 / pbratio=1.30 / aq-mode=1 / aq-strength=0.70 / cutree / zone-count=0 / no-strict-cbr / qg-size=32 / no-rc-grain / qpmax=69 / qpmin=0 / no-const-vbv / sar=0 / overscan=0 / videoformat=5 / range=0 / colorprim=1 / transfer=1 / colormatrix=1 / chromaloc=0 / display-window=0 / max-cll=0,0 / min-luma=0 / max-luma=1023 / log2-max-poc-lsb=8 / vui-timing-info / vui-hrd-info / slices=1 / no-opt-qp-pps / no-opt-ref-list-length-pps / no-multi-pass-opt-rps / scenecut-bias=0.05 / no-opt-cu-delta-qp / no-aq-motion / no-hdr / no-hdr-opt / no-dhdr10-opt / no-idr-recovery-sei / analysis-reuse-level=5 / scale-factor=0 / refine-intra=0 / refine-inter=0 / refine-mv=0 / no-limit-sao / ctu-info=0 / no-lowpass-dct / refine-mv-type=0 / copy-pic=1 / max-ausize-factor=1.0 / no-dynamic-refine / no-single-sei
Default : Да
Forced : Да
Цветовой диапазон : Limited
Основные цвета : BT.709
Характеристики трансфера : BT.709
Коэффициенты матрицы : BT.709
 

Аудио

Идентификатор : 2
Формат : AC-3
Формат/Информация : Audio Coding 3
Идентификатор кодека : A_AC3
Продолжительность : 1 ч. 47 м.
Вид битрейта : Постоянный
Битрейт : 448 Кбит/сек
Каналы : 6 каналов
Расположение каналов : Front: L C R, Side: L R, LFE
Частота : 48,0 КГц
Частота кадров : 31,250 кадров/сек (1536 SPF)
Битовая глубина : 16 бит
Метод сжатия : С потерями
Размер потока : 344 Мбайт (7%)
ServiceKind/String : Complete Main
Default : Да
Forced : Нет
 

Меню

00:00:00.000 : :Chapter 01
00:05:37.378 : :Chapter 02
00:09:26.232 : :Chapter 03
00:16:43.877 : :Chapter 04
00:19:52.316 : :Chapter 05
00:24:41.897 : :Chapter 06
00:29:31.978 : :Chapter 07
00:35:33.840 : :Chapter 08
00:40:49.113 : :Chapter 09
00:46:28.327 : :Chapter 10
00:51:44.643 : :Chapter 11
00:57:46.463 : :Chapter 12
00:59:57.427 : :Chapter 13
01:05:49.612 : :Chapter 14
01:12:55.371 : :Chapter 15
01:17:46.828 : :Chapter 16
01:19:50.952 : :Chapter 17
01:25:42.512 : :Chapter 18
01:29:13.389 : :Chapter 19
01:38:34.575 : :Chapter 20
01:47:10.215 : :Chapter 21
 
 
 
Размер: 4.96Гб
Категория: Фильмы [HEVC] | Добавил: DSIO
Просмотров: 206 | Загрузок: 54 | Рейтинг: 3.9/7
Всего комментариев: 0
avatar