Главная » Файлы » Фильмы [HEVC]

Зеркала/ Mirrors [Unrated] (2008) BDRip 1080p [HEVC] 10bit
03.07.2018, 16:19
Зеркала/ Mirrors

Год: 2008
Страна(студия): США
Жанр: Ужасы, Триллер, Криминал
Продолжительность: 01:51:21
Перевод: Дублированный

Режиссер: Александр Аджа
В ролях: Кифер Сазерленд, Паула Паттон, Камерон Бойс, Эрика Глюк, Эми Смарт, Мэри Бет Пейл, Джон Шрэпнел, Джейсон Флеминг, Тим Ахерн, Джулиан Гловер
Описание: Бен Карсон - бывший полицейский, который устроился работать охранником в торговый центр, закрытый после загадочного пожара, произошедшего в нем, в котором погибло более 50 человек. Предыдущий охранник погибает при загадочных обстоятельствах. Пытаясь разобраться, герой оказывается вовлеченным в цепь необъяснимых событий, которые приводят к страшному открытию. Зеркала обладают способностью убивать людей и начинают угрожать ему. У Бена есть всего лишь несколько дней, чтобы найти ключ к тайне зеркал и спасти себя и свою семью от угрозы из Зазеркалья.
Качество: BDRip 1080p Формат: MKV
Видео: H.265 L5.1High 1920x800 23,976 кадр/сек 10,7 Мбит/сек 10bit
Аудио: QAAC Русская 6 канала(ов) 402 Кбит/сек 48,0 КГц
MediaInfo

Общее

Уникальный идентификатор : 285304953941226964222310723410883267020 (0xD6A3BC43AE8D77B4E0AEDD92665049CC)
Полное имя : Z:\Downloads\Зеркала - Mirrors (2008)(1080p).mkv
Формат : Matroska
Версия формата : Version 4 / Version 2
Размер файла : 8,61 Гбайт
Продолжительность : 1 ч. 51 м.
Общий поток : 11,1 Мбит/сек
Дата кодирования : UTC 2018-07-03 12:55:51
Программа кодирования : mkvmerge v23.0.0 ('The Bride Said No') 64-bit
Библиотека кодирования : libebml v1.3.6 + libmatroska v1.4.9
Обложка : Yes
Attachments : cover.jpg
Encoding Gui : Hybrid 2018.06.23.1
 

Видео

Идентификатор : 1
Формат : HEVC
Формат/Информация : High Efficiency Video Coding
Профиль формата : Main 10@L5.1@High
Идентификатор кодека : V_MPEGH/ISO/HEVC
Продолжительность : 1 ч. 51 м.
Битрейт : 10,7 Мбит/сек
Ширина : 1920 пикселей
Высота : 800 пикселей
Соотношение сторон : 2,40:1
Режим частоты кадров : Постоянный
Частота кадров : 23,976 (24000/1001) кадра/сек
Цветовое пространство : YUV
Субдискретизация насыщенности : 4:2:0
Битовая глубина : 10 бит
Бит/(Пиксели*Кадры) : 0.289
Размер потока : 8,29 Гбайт (96%)
Библиотека кодирования : x265 2.8+23-656b5b442f0b:[Windows][GCC 7.3.0][64 bit] 10bit
Настройки программы : cpuid=1176575 / frame-threads=4 / numa-pools=16 / wpp / no-pmode / no-pme / no-psnr / no-ssim / log-level=2 / input-csp=1 / input-res=1920x800 / interlace=0 / total-frames=0 / level-idc=51 / high-tier=1 / uhd-bd=0 / ref=5 / no-allow-non-conformance / no-repeat-headers / annexb / no-aud / no-hrd / info / hash=0 / no-temporal-layers / open-gop / min-keyint=23 / keyint=250 / gop-lookahead=0 / bframes=8 / b-adapt=2 / no-b-pyramid / bframe-bias=0 / rc-lookahead=40 / lookahead-slices=4 / scenecut=40 / radl=0 / no-intra-refresh / ctu=64 / min-cu-size=8 / no-rect / no-amp / max-tu-size=32 / tu-inter-depth=2 / tu-intra-depth=2 / limit-tu=4 / rdoq-level=2 / dynamic-rd=0.00 / no-ssim-rd / signhide / no-tskip / nr-intra=0 / nr-inter=0 / no-constrained-intra / strong-intra-smoothing / max-merge=3 / limit-refs=2 / limit-modes / me=3 / subme=7 / merange=64 / temporal-mvp / weightp / weightb / no-analyze-src-pics / deblock=-1:-1 / no-sao / no-sao-non-deblock / rd=6 / no-early-skip / rskip / no-fast-intra / no-tskip-fast / no-cu-lossless / b-intra / no-splitrd-skip / rdpenalty=0 / psy-rd=2.00 / psy-rdoq=1.00 / no-rd-refine / no-lossless / cbqpoffs=0 / crqpoffs=0 / rc=crf / crf=18.0 / qcomp=0.60 / qpstep=4 / stats-write=0 / stats-read=0 / vbv-maxrate=160000 / vbv-bufsize=160000 / vbv-init=0.9 / crf-max=0.0 / crf-min=0.0 / ipratio=1.10 / pbratio=1.10 / aq-mode=1 / aq-strength=0.70 / cutree / zone-count=0 / no-strict-cbr / qg-size=32 / no-rc-grain / qpmax=69 / qpmin=0 / no-const-vbv / sar=0 / overscan=0 / videoformat=5 / range=0 / colorprim=1 / transfer=1 / colormatrix=1 / chromaloc=0 / display-window=0 / max-cll=0,0 / min-luma=0 / max-luma=1023 / log2-max-poc-lsb=8 / vui-timing-info / vui-hrd-info / slices=1 / no-opt-qp-pps / no-opt-ref-list-length-pps / no-multi-pass-opt-rps / scenecut-bias=0.05 / no-opt-cu-delta-qp / no-aq-motion / no-hdr / no-hdr-opt / no-dhdr10-opt / no-idr-recovery-sei / analysis-reuse-level=5 / scale-factor=0 / refine-intra=0 / refine-inter=0 / refine-mv=0 / no-limit-sao / ctu-info=0 / no-lowpass-dct / refine-mv-type=0 / copy-pic=1 / max-ausize-factor=1.0 / no-dynamic-refine / no-single-sei
Default : Да
Forced : Да
Цветовой диапазон : Limited
Основные цвета : BT.709
Характеристики трансфера : BT.709
Коэффициенты матрицы : BT.709
 

Аудио

Идентификатор : 2
Формат : AAC
Формат/Информация : Advanced Audio Codec
Профиль формата : LC
Идентификатор кодека : A_AAC-2
Продолжительность : 1 ч. 51 м.
Битрейт : 402 Кбит/сек
Каналы : 6 каналов
Расположение каналов : Front: L C R, Side: L R, LFE
Частота : 48,0 КГц
Частота кадров : 46,875 кадров/сек (1024 SPF)
Метод сжатия : С потерями
Задержка видео : 20 мс.
Размер потока : 321 Мбайт (4%)
Default : Да
Forced : Нет
 
 
 
Размер: 8.6Гб
Категория: Фильмы [HEVC] | Добавил: DSIO
Просмотров: 286 | Загрузок: 98 | Комментарии: 4 | Рейтинг: 5.0/5
Всего комментариев: 4
avatar
0
1
Спасибо!
avatar
2
Спасибо!
avatar
0
3
respect
avatar
4
Был здесь в качестве нормальном правда не скажу 8 или 10 бит и весил на половину  За работу спасибо
avatar